<?xml version="1.0" standalone="no"?>
<!DOCTYPE svg PUBLIC "-//W3C//DTD SVG 1.1//EN" "http://www.w3.org/Graphics/SVG/1.1/DTD/svg11.dtd" >
<svg xmlns="http://www.w3.org/2000/svg">
<metadata>Generated by IcoMoon</metadata>
<defs>
<g id="sms" fill-rule="evenodd">
<path class="st0" d="M170 210.1H50v-180h120v20h20v-30c.1-5.4-4.1-9.8-9.5-10H40.3c-5.6 0-10.2 4.4-10.3 10V240c.2 5.6 4.7 10 10.3 10h140c5.4 0 9.7-4.4 9.7-9.8V190h-20v20.1zm-59.7 30c-5.5 0-10-4.5-10-10s4.5-10 10-10 10 4.5 10 10-4.4 10-10 10z"/><path class="st0" d="M234 70.1H106c-3.3 0-6 2.7-6 6v88.1c0 3.3 2.7 6 6 6h128c3.3 0 6-2.7 6-6V76c0-3.3-2.7-6-6-5.9zm-4 39.8L170 139l-60-29.1V90l10 4.8 50 24.2 60-29v19.9z"/>
</g>
<font id="BBVA-Icons" horiz-adv-x="1024">
<font-face units-per-em="1024" ascent="960" descent="-64" />
<missing-glyph horiz-adv-x="1024" />
<glyph unicode="&#x20;" horiz-adv-x="512" d="" />
<glyph unicode="&#xe900;" glyph-name="medical_kit" d="M710.664 302.204h-131.12v-130.036h-135.097v130.036h-131.12v133.974h131.12v130.036h135.097v-130.036h131.12v-133.974zM353.064 723.835v78.808h317.864v-78.808h-317.864zM949.040 723.835h-198.64v118.098c0 22.263-17.833 39.523-39.834 39.523h-397.132c-21.721 0-39.834-17.69-39.834-39.523v-118.098h-198.64c-21.978 0-39.76-17.528-39.76-39.147v-630.999c0-21.613 17.799-39.147 39.76-39.147h874.080c21.978 0 39.76 17.528 39.76 39.147v630.999c0 21.613-17.799 39.147-39.76 39.147v0z" />
<glyph unicode="&#xe901;" glyph-name="bath" d="M990.011 401.157v146.961c-0.781 11.289-9.886 20.279-21.328 21.049h-68.637v171.977c0 56.616-40.643 104.764-98.053 104.764l-120.849 0.435c-87.020 0-85.6-70.359-85.6-119.183h58.83v31.549c0 12.194 8.825 22.211 19.61 22.211h128.202c10.785 0 19.61-9.969 19.61-22.211v-189.494h-766.422c-11.466-0.772-20.592-9.782-21.376-21.097v-146.523c0-133.557-4.904-257.483 180.318-315.648-6.149-8.632-9.564-18.871-9.805-29.42v-6.871h615.029v6.871c-0.241 10.549-3.656 20.789-9.805 29.42 185.171 58.213 180.269 182.091 180.269 315.648v0-0.435zM560.609 368.328h-446.946v119.504h517.85l-70.904-119.504z" />
<glyph unicode="&#xe902;" glyph-name="nursery_room" d="M703.002 555.44c26.263 0 47.751-21.488 47.751-47.751v-533.217c0-13.131-10.744-23.875-23.875-23.875h-429.757c-13.131 0-23.875 10.744-23.875 23.875v175.086h119.377l79.585 79.585h-198.961v79.585h119.377l79.585 79.585h-198.961v119.377c0 26.263 21.488 47.751 47.751 47.751h382.006zM352.829 627.066c-21.886 0-39.792 17.907-39.792 39.792s17.907 39.792 39.792 39.792h0.999c7.346 74.682 55.486 135.517 118.812 153.642-0.255 1.811-0.434 3.649-0.434 5.527v39.792c0 21.886 17.907 39.792 39.792 39.792s39.792-17.907 39.792-39.792v-39.792c0-1.878-0.179-3.717-0.434-5.527 63.329-18.125 111.466-78.96 118.808-153.642h1.003c21.886 0 39.792-17.907 39.792-39.792s-17.907-39.792-39.792-39.792h-318.338z" />
<glyph unicode="&#xe903;" glyph-name="payslip-euro" d="M731.429 484.571c-161.583 0-292.571-130.989-292.571-292.571 0-53.29 14.247-103.252 39.141-146.286h-368.525c-20.064 0-36.33 16.365-36.33 36.597v804.521c0 20.212 16.668 36.597 36.662 36.597h402.195l219.429-219.429v-219.429zM553.737 594.286l67.978 70.499h-151.451v258.644h-67.978v-329.143h151.451zM731.429-27.429c-121.187 0-219.429 98.242-219.429 219.429s98.242 219.429 219.429 219.429c121.187 0 219.429-98.242 219.429-219.429s-98.242-219.429-219.429-219.429zM642.319 139.755v0h71.362l42.846 41.796h-128.009c-0.35 3.437-0.529 6.922-0.529 10.449s0.179 7.012 0.529 10.449h85.163l42.846 41.796h-114.208c18.521 31.232 53.137 52.245 92.785 52.245 29.579 0 56.358-11.695 75.742-30.604l30.297 29.554c-27.138 26.473-64.628 42.846-106.039 42.846-79.082 0-143.867-59.714-149.555-135.441l-0.406-0.396h0.377c-0.25-3.451-0.377-6.936-0.377-10.449 0-80.791 67.14-146.286 149.961-146.286 41.411 0 78.901 16.374 106.039 42.846l-30.297 29.554c-19.384-18.909-46.163-30.604-75.742-30.604-39.648 0-74.264 21.013-92.785 52.245z" />
<glyph unicode="&#xe904;" glyph-name="currency-up" d="M280.463 356.571c31.617-54.656 90.711-91.429 158.394-91.429 43.796 0 83.995 15.397 115.481 41.073l43.913-58.551c-43.734-34.842-99.132-55.664-159.395-55.664-141.385 0-256 114.615-256 256 0 6.148 0.217 12.246 0.643 18.286h-0.643l0.693 0.693c9.711 132.522 120.306 237.021 255.307 237.021 70.692 0 134.692-28.654 181.019-74.981l-51.72-51.72c-33.091 33.091-78.805 53.558-129.3 53.558-67.683 0-126.777-36.772-158.394-91.429h194.966l-73.143-73.143h-145.383c-0.597-6.014-0.903-12.114-0.903-18.286s0.306-12.271 0.903-18.286h218.526l-73.143-73.143h-121.823zM731.429 557.714l109.714-146.286h-73.143v-146.286l-73.143-73.143v219.429h-73.143l109.714 146.286z" />
<glyph unicode="&#xe905;" glyph-name="currency-down" d="M280.463 356.571c31.617-54.656 90.711-91.429 158.394-91.429 50.495 0 96.209 20.467 129.3 53.558l51.72-51.72c-46.327-46.327-110.327-74.981-181.019-74.981-141.385 0-256 114.615-256 256 0 6.148 0.217 12.246 0.643 18.286h-0.643l0.693 0.693c9.711 132.522 120.306 237.021 255.307 237.021 70.692 0 134.692-28.654 181.019-74.981l-51.72-51.72c-33.091 33.091-78.805 53.558-129.3 53.558-67.683 0-126.777-36.772-158.394-91.429h194.966l-73.143-73.143h-145.383c-0.597-6.014-0.903-12.114-0.903-18.286s0.306-12.271 0.903-18.286h218.526l-73.143-73.143h-121.823zM731.429 192l-109.714 146.286h73.143v219.429l73.143-73.143v-146.286h73.143l-109.714-146.286z" />
<glyph unicode="&#xe906;" glyph-name="loan-euro" d="M650.332 201.846c-0.322 3.238-0.486 6.523-0.486 9.846s0.165 6.608 0.486 9.846h78.283l39.385 39.385h-104.981c17.024 29.43 48.844 49.231 85.289 49.231 27.189 0 51.805-11.021 69.623-28.839l27.849 27.849c-24.945 24.945-59.407 40.374-97.472 40.374-72.693 0-132.244-56.269-137.473-127.627l-0.373-0.373h0.346c-0.23-3.252-0.346-6.536-0.346-9.846 0-76.13 61.716-137.846 137.846-137.846 38.065 0 72.527 15.429 97.472 40.374l-27.849 27.849c-17.818-17.818-42.433-28.839-69.623-28.839-36.445 0-68.265 19.801-85.289 49.231h65.597l39.385 39.385h-117.668zM748.308-24.615c-130.509 0-236.308 105.799-236.308 236.308s105.799 236.308 236.308 236.308c130.509 0 236.308-105.799 236.308-236.308s-105.799-236.308-236.308-236.308zM438.857 484.571v146.286l73.143 73.142v-256l-109.714-109.714h-109.714l146.286 146.286zM914.164 474.131c-22.774 14.225-47.523 25.583-73.741 33.569-11.932 191.203-170.785 342.586-364.995 342.586-201.978 0-365.714-163.736-365.714-365.714 0-194.21 151.383-353.063 342.586-364.995 7.986-26.218 19.344-50.967 33.569-73.741-3.47-0.081-6.95-0.122-10.44-0.122-242.374 0-438.857 196.483-438.857 438.857s196.483 438.857 438.857 438.857c242.374 0 438.857-196.483 438.857-438.857 0-3.49-0.041-6.97-0.122-10.44z" />
<glyph unicode="&#xe907;" glyph-name="funding" d="M987.429 630.857v-512h-877.714l73.143 73.143h731.429v365.714l73.143 73.143zM36.571 265.143v512h804.571v-512h-804.571zM334.629 338.286l329.143 365.714h-109.714l-329.143-365.714h109.714zM590.629 336.677c40.411 0 73.143 32.914 73.143 73.545s-32.731 73.545-73.143 73.545c-40.411 0-73.143-32.914-73.143-73.545s32.731-73.545 73.143-73.545zM298.057 704.439c-40.411 0-73.143-32.951-73.143-73.582 0-40.594 32.731-73.545 73.143-73.545s73.143 32.951 73.143 73.545c0 40.631-32.731 73.582-73.143 73.582z" />
<glyph unicode="&#xe908;" glyph-name="currencyexchange-euro" d="M521.82 434.286c-0.448 4.511-0.677 9.086-0.677 13.714s0.229 9.204 0.677 13.714h109.037l54.857 54.857h-146.224c23.713 40.992 68.033 68.571 118.796 68.571 37.871 0 72.157-15.35 96.975-40.168l38.79 38.79c-34.745 34.745-82.745 56.235-135.765 56.235-101.251 0-184.197-78.374-191.48-177.766l-0.52-0.52h0.482c-0.32-4.53-0.482-9.103-0.482-13.714 0-106.039 85.961-192 192-192 53.019 0 101.019 21.49 135.765 56.235l-38.79 38.79c-24.818-24.818-59.104-40.168-96.975-40.168-50.762 0-95.083 27.579-118.796 68.571h91.367l54.857 54.857h-163.894zM317.667 233.911c27.081-42.993 62.073-80.497 102.938-110.475-17.854-2.995-36.184-4.579-54.89-4.579-181.778 0-329.143 147.361-329.143 329.143 0 181.778 147.365 329.143 329.143 329.143 18.706 0 37.036-1.587 54.89-4.582-40.865-29.978-75.856-67.482-102.938-110.475-98.066-21.917-171.381-109.414-171.381-214.085 0-104.675 73.315-192.172 171.381-214.089zM658.286 118.857c-181.781 0-329.143 147.362-329.143 329.143s147.362 329.143 329.143 329.143c181.781 0 329.143-147.362 329.143-329.143s-147.362-329.143-329.143-329.143z" />
<glyph unicode="&#xe909;" glyph-name="coins-euro" d="M836.589 356.591c2.995-17.847 4.554-36.181 4.554-54.879 0-181.778-147.361-329.143-329.143-329.143s-329.143 147.365-329.143 329.143c0 18.698 1.559 37.032 4.554 54.879 73.206-99.8 191.33-164.593 324.588-164.593s251.382 64.793 324.588 164.593zM375.534 580.571c-0.448 4.511-0.677 9.086-0.677 13.714s0.229 9.204 0.677 13.714h109.037l54.857 54.857h-146.224c23.713 40.992 68.033 68.571 118.796 68.571 37.871 0 72.157-15.35 96.975-40.168l38.79 38.79c-34.745 34.745-82.745 56.235-135.765 56.235-101.251 0-184.197-78.374-191.48-177.766l-0.52-0.52h0.482c-0.32-4.53-0.482-9.103-0.482-13.714 0-106.039 85.961-192 192-192 53.019 0 101.019 21.49 135.765 56.235l-38.79 38.79c-24.818-24.818-59.104-40.168-96.975-40.168-50.762 0-95.083 27.579-118.796 68.571h91.367l54.857 54.857h-163.894zM512.001 923.427c181.782 0 329.143-147.361 329.143-329.143 0-181.778-147.361-329.143-329.143-329.143s-329.143 147.365-329.143 329.143c0 181.782 147.361 329.143 329.143 329.143z" />
<glyph unicode="&#xe90a;" glyph-name="cheque" d="M36.571 265.143h804.571v512h-804.571v-512zM914.286 557.714l73.143 73.143v-512h-877.714l73.143 73.143h731.429v365.714zM463.827 616.086l34.756-34.923h52.15l-60.836 61.111 55.669 55.922c6.804 6.835 17.755 6.915 24.585 0.054l62.369-62.653c6.773-6.805 6.886-17.726-0.054-24.697l-290.3-291.62h-86.901v87.296l208.561 209.509zM429.854 354.183h209.506v-34.918h-244.423l34.918 34.918z" />
<glyph unicode="&#xe90b;" glyph-name="trading" d="M109.714 886.825c0 20.215 16.072 36.603 36.661 36.603h731.249c20.248 0 36.661-16.261 36.661-36.603v-511.936c0-20.215-16.072-36.603-36.661-36.603h-731.249c-20.248 0-36.661 16.261-36.661 36.603v511.936zM219.429 448v-73.143h146.286v219.429l-146.286-146.286zM438.857 740.571v-365.714h146.286v512l-146.286-146.286zM658.286 594.286v-219.429h146.286v365.714l-146.286-146.286zM475.429 192l128 109.714v-73.143h219.429l-73.143-73.143h-146.286v-73.143l-128 109.714zM987.429 82.286l-128-109.714v73.143h-219.429l73.143 73.143h146.286v73.143l128-109.714z" />
<glyph unicode="&#xe90c;" glyph-name="sell" d="M731.429 265.143v375.338l-173.233-173.233v-271.899l69.793 69.793h103.44zM315.669 640.481l173.233 173.233v-692.932h-173.233v519.699zM73.143 294.015l173.233 173.233v-346.466h-173.233v173.233zM950.857 155.429l-146.286-109.714v73.143h-219.429l73.143 73.143h146.286v73.143l146.286-109.714z" />
<glyph unicode="&#xe90d;" glyph-name="buy" d="M731.429 356.476l-173.233-129.717v240.488l173.233 173.233v-284.005zM315.669 640.481l173.233 173.233v-692.932h-173.233v519.699zM73.143 294.015l173.233 173.233v-346.466h-173.233v173.233zM585.143 155.429l146.286 109.714v-73.143h146.286l73.143-73.143h-219.429v-73.143l-146.286 109.714z" />
<glyph unicode="&#xe90e;" glyph-name="buggy" horiz-adv-x="977" d="M149.383 487.896h797.922c0-220.34-178.621-398.961-398.961-398.961s-398.961 178.621-398.961 398.961zM945.336 567.688h-396.991v359.065c206.875 0 376.974-157.457 396.991-359.065zM328.916-30.753c-33.051 0-59.844 26.793-59.844 59.844s26.793 59.844 59.844 59.844c33.051 0 59.844-26.793 59.844-59.844s-26.793-59.844-59.844-59.844zM767.773-30.753c-33.051 0-59.844 26.793-59.844 59.844s26.793 59.844 59.844 59.844c33.051 0 59.844-26.793 59.844-59.844s-26.793-59.844-59.844-59.844zM149.383 487.896l-119.688 119.688h119.688l119.688-119.688h-119.688z" />
<glyph unicode="&#xe90f;" glyph-name="pregnancy" d="M727.13 382.143c-13.17-26.341-17.564-61.468-4.388-87.809 21.952-52.687 70.245-92.198 131.714-92.198 57.075 0 105.368 35.123 127.32 87.809 13.17 30.734 13.17 65.857-4.388 92.198l-74.639 140.496c-4.388 8.782-4.388 17.564-4.388 26.341v109.762l74.639 26.341-250.257 4.388h-61.468c-8.782 87.809-87.809 144.884-166.837 131.714-74.639-8.782-131.714-74.639-131.714-149.273 0-39.516 17.564-79.027 43.905-105.368-83.421 0-210.741 17.564-289.768 96.591 0 0-43.905-171.225 74.639-298.55-87.809-61.468-162.448-100.98-153.666-118.543 26.341-35.123 92.198-79.027 131.714-100.98 158.055-87.809 412.7-30.734 500.51 122.932 52.687 92.198 61.468 206.353 13.17 302.939l131.714 52.687v-74.639c0-8.782 0-17.564-4.388-26.341l-83.421-140.496z" />
<glyph unicode="&#xe910;" glyph-name="iupay" d="M94.129 430.277c3.545 0 6.695 0 9.452 0 11.028 0 21.662 0 32.689 0 5.12 0 7.089 1.182 7.483-6.302 1.182-9.846 4.726-18.511 11.028-25.994 19.298-22.055 55.532-16.935 67.742 9.846 2.363 5.514 3.938 11.815 5.12 17.723 0.788 3.151 1.575 5.12 5.12 5.12 12.997 0 25.994 0 38.991 0 3.545 0 4.726-1.575 4.726-5.12 0-22.055 0-44.111 0-65.772 0-9.846-6.695-18.117-15.754-21.268-9.452-3.151-18.511-0.394-25.206 7.877-2.363 3.151-4.332 3.545-7.877 1.575-36.234-18.117-72.862-13.391-103.188 13.391-17.723 15.754-27.569 35.84-29.932 59.865 0 1.969 0 5.12-0.394 9.058zM530.905 429.883c16.148 0 31.508 0 47.262 0 0.788-3.151 1.182-6.302 1.969-9.452 5.12-29.932 37.022-45.686 62.228-30.72 12.603 7.483 18.511 19.692 20.48 33.871 0.394 1.969 0.394 3.938 0.788 6.302 15.754 0 31.508 0 47.262 0 0.394-1.575 0.788-3.151 0.788-4.332 0-21.662 0.394-43.323 0-65.378 0-17.329-17.723-28.357-32.295-20.48-3.938 1.969-7.483 6.302-11.815 9.846-37.022-19.692-73.649-17.329-106.338 11.422-20.48 17.723-30.326 40.96-30.326 68.923zM457.255 583.483c-26.782 22.449-64.591 28.357-96.492 7.089-1.182-0.788-1.969-1.182-3.545-1.969-1.182 1.969-1.969 3.151-3.151 4.726-5.908 8.271-14.966 12.209-24.812 9.846-9.058-1.969-16.148-10.24-17.329-20.086-0.394-2.363 0-5.12 0-7.483 0-113.428 0-226.855 0-340.283 0-2.363 0-5.12 0-7.483 0-9.452 4.332-16.542 12.997-21.268 1.182-0.788 2.363-1.575 3.545-2.363 3.938 0 7.483 0 11.422 0 13.391 5.12 18.117 14.966 18.117 28.751-0.394 37.022 0 73.649 0 110.671 0 2.363 0 4.332 0 7.483 2.757-1.575 4.332-2.363 5.908-3.151 17.723-10.24 37.022-12.997 56.714-8.665 41.354 8.665 72.074 45.292 72.862 87.434 0.788 27.175 0.788 54.351 0 81.92-0.394 29.932-12.997 55.138-36.234 74.831zM445.834 427.914c-0.394-13.391-5.12-24.812-15.36-33.871-23.631-20.48-60.258-7.877-67.742 23.631-1.182 3.938-1.575 7.877-1.575 12.209 0 25.206 0 50.806 0 76.012 0 12.997 3.938 24.418 13.391 33.477 11.422 11.028 24.812 14.966 40.172 10.634 16.148-4.332 25.6-15.754 29.932-31.508 1.182-4.332 1.575-9.058 1.575-13.785 0-12.209 0-24.812 0-37.022v0c-0.394-13.391-0.394-26.782-0.394-39.778zM695.532 602.782c-10.24 3.151-19.692-0.788-25.994-10.24-0.788-1.182-1.575-2.363-2.363-3.545-11.422 7.483-23.237 12.603-36.234 14.178-22.449 2.363-42.929-3.151-60.652-16.935-22.055-17.329-35.446-39.385-38.597-67.348-0.394-3.151-1.182-6.695-1.182-10.24 0-17.723 0-35.052 0-52.775 0-1.969 0.394-3.545 0.394-6.302 15.754 0 31.114 0 46.868 0 0.394 1.969 1.182 4.332 1.182 6.302 0 16.148 0 32.295 0 48.443 0 4.332 0.394 8.665 1.182 12.603 6.302 31.114 40.96 45.292 65.772 26.388 11.815-9.058 17.329-21.268 17.329-35.84 0-16.935 0-33.871 0-51.2 0-2.363 0.788-4.332 1.182-6.695 15.36 0 30.72 0 46.080 0v0c0.394 0.394 1.182 0.788 1.182 1.182 0 1.182 0 2.363 0 3.938 0 41.748 0 83.495 0 125.243 0 11.028-6.302 20.086-16.148 22.843zM252.849 603.569c-13.785 0-24.812-10.634-24.812-24.812 0-40.96 0-82.314 0-123.274 0-1.969 0-3.938 0.394-5.908 16.148 0 31.902 0 48.049 0 0 1.182 0.394 1.969 0.394 3.151 0 42.929 0 85.465 0 128.394-0.394 12.603-11.422 22.449-24.025 22.449zM142.966 577.575c0 2.363-0.394 5.12-0.788 7.483-2.363 11.422-11.815 18.511-23.237 18.511s-22.055-8.665-24.025-19.692c-0.394-2.363-0.788-5.12-0.788-7.483 0-40.172 0-80.345 0-120.517 0-1.575-0.394-3.151 0-4.332s1.969-1.182 3.151-1.969c14.572 0 29.145 0 43.323 0 3.938 1.182 1.969 4.332 1.969 6.302 0.394 40.566 0.394 81.132 0.394 121.698zM57.502 583.483c-1.182 9.452-6.695 15.36-15.36 18.511s-16.935 1.182-24.025-4.726c-6.302-5.514-8.271-12.603-8.271-20.48 0-70.892 0-142.178 0-213.071 0-1.969 0-4.332 0-6.302 1.182-11.422 12.209-20.48 24.025-20.48 12.209 0 21.662 8.665 23.237 20.48 0 2.363 0.394 5.12 0.394 7.483 0 70.498 0 140.603 0 211.102 0.788 2.757 0.394 5.12 0 7.483zM34.265 692.578c18.905 0 34.265-15.36 34.265-34.265s-15.36-34.265-34.265-34.265c-18.905 0-34.265 15.36-34.265 34.265s15.36 34.265 34.265 34.265zM965.317 454.302c0-1.969 0-4.332 0-6.302 1.182-11.422 10.634-20.874 22.449-21.662 12.209-0.788 22.055 6.302 24.812 18.117 0.394 2.363 1.182 5.12 1.182 7.483 0 71.68 0 142.966 0 214.646 0 2.757-0.788 5.514-1.182 8.271-1.182 2.757-1.969 6.302-3.938 8.271-3.938 3.545-8.271 6.302-12.603 9.452-4.332 0-8.665 0-12.603 0-14.178-5.908-18.117-16.935-18.117-31.902 0-68.923 0-137.846 0-206.375zM989.735 405.465c18.905 0 34.265-15.36 34.265-34.265s-15.36-34.265-34.265-34.265c-18.905 0-34.265 15.36-34.265 34.265s15.36 34.265 34.265 34.265zM929.477 583.483c-1.969 11.422-10.634 19.298-22.449 19.692s-22.055-7.089-24.812-18.511c0-0.788 0-1.575-0.394-1.969 0-2.757-0.788-5.514-0.788-8.271 0-48.049 0-96.492 0-144.542 0-3.938 0-8.271-0.394-12.209-1.182-10.634-5.908-19.692-14.572-25.6-24.812-18.117-59.077-6.302-67.348 23.631-1.182 3.938-1.575 8.271-2.363 12.603 0 0.788 0 1.575 0 2.363 0 49.231 0 98.462 0 147.298 0 1.969-0.394 3.938-0.394 5.514 0 1.182 0 1.969-0.394 3.151-3.545 11.422-14.966 18.117-27.175 16.148s-20.874-11.422-20.874-23.631c0-50.806-0.788-101.612 0-152.418 0.788-34.658 16.935-61.44 47.262-78.375 27.569-15.36 56.32-16.935 84.283 1.182 0.788 0.394 1.182 0.788 1.969 1.182 0-1.182 0-1.969 0-3.151v-20.086c0-1.182 0-2.757 0-3.938 0-12.209 0-24.418-0.394-36.628-0.788-12.209-5.908-22.449-16.542-28.751-15.36-9.452-31.114-9.452-46.868-1.969-14.572 7.089-21.268 19.692-21.662 35.84 0 8.271-3.545 15.754-9.452 21.662-8.271 8.271-19.298 8.271-27.569-0.394-6.302-6.695-9.058-14.572-9.058-23.631 0.788-40.566 28.357-74.437 67.742-83.889 14.966-3.545 40.566-0.788 42.535-0.394 10.24 1.969 19.692 5.908 28.357 11.422 25.6 16.542 39.778 40.172 40.96 70.892 0 3.938 0.394 8.271 0.394 12.209 0 91.766 0 183.926 0 275.692 0 3.151 0 5.514 0 7.877z" />
<glyph unicode="&#xe911;" glyph-name="pacifier" d="M399.833 424.684c-8.98 8.98-24.537 12.012-33.516 3.072-77.745-77.745-146.353-24.97-231.424-110.001-30.643-31.53-49.537-74.62-49.537-122.122 0-96.816 78.485-175.301 175.301-175.301 47.522 0 90.628 18.91 122.203 49.615l-0.040-0.039c85.031 85.031 32.256 153.6 110.001 231.424 8.98 8.98 5.908 24.537-3.072 33.516zM878.631 503.65c39.641 39.653 64.158 94.427 64.158 154.927 0 121.025-98.111 219.136-219.136 219.136s-219.136-98.111-219.136-219.136c0-28.83 5.567-56.359 15.685-81.572l-0.523 1.475-43.874-43.835-158.090 158.090c-7.127 7.125-16.971 11.531-27.845 11.531s-20.718-4.407-27.845-11.531l-6.262-6.262c-7.125-7.127-11.531-16.971-11.531-27.845s4.407-20.718 11.531-27.845l440.084-440.162c7.127-7.125 16.971-11.531 27.845-11.531s20.718 4.407 27.845 11.531l6.262 6.262c7.125 7.127 11.531 16.971 11.531 27.845s-4.407 20.718-11.531 27.845l-158.090 158.090 43.914 43.914c23.719-9.579 51.225-15.136 80.029-15.136 60.526 0 115.32 24.538 154.978 64.209v0zM630.745 751.577c23.79 23.786 56.654 38.498 92.953 38.498 72.607 0 131.466-58.859 131.466-131.466s-58.859-131.466-131.466-131.466c-36.3 0-69.163 14.712-92.954 38.499v0c-23.795 23.791-38.512 56.661-38.512 92.967s14.718 69.176 38.512 92.967v0z" />
<glyph unicode="&#xe912;" glyph-name="cloud" d="M988.554 349.538c0 141.385-114.615 256-256 256v0c-5.671 0-11.303-0.236-16.896-0.63-59.197 117.989-179.227 197.553-317.841 197.553-0.011 0-0.023 0-0.034 0h0.001c-3.505 0-6.971 0-10.437 0-2.718 0-5.474 0-8.192 0-186.447 0-337.566-158.72-337.566-354.462s151.119-354.462 337.566-354.462h371.358c114.57 0 210.078 85.622 231.7 199.207 4.030 17.033 6.341 36.59 6.341 56.686 0 0.037 0 0.075 0 0.112v-0.006z" />
<glyph unicode="&#xe913;" glyph-name="creditcard" d="M547.446 329.846v-78.769h196.923l78.769 78.769h-275.692zM35.446 644.923v-78.769h708.923l78.769 78.769h-787.692zM35.446 763.471c0 21.662 17.723 38.991 39.385 38.991h866.462c21.662 0 39.385-17.329 39.385-38.991v-630.548c0-21.662-17.723-38.991-39.385-38.991h-866.462c-21.662 0-39.385 17.329-39.385 38.991v630.548z" />
<glyph unicode="&#xe914;" glyph-name="insurance" d="M236.308 448c0 55.926 16.542 107.914 45.292 151.631l-140.997 140.997c-63.409-80.738-101.218-182.351-101.218-292.628s37.809-211.889 101.218-292.628l140.997 140.997c-28.751 43.717-45.292 95.705-45.292 151.631zM883.397 740.628l-140.997-140.997c28.751-43.323 45.292-95.705 45.292-151.631s-16.542-107.914-45.292-151.631l140.997-140.997c63.409 80.738 101.218 182.351 101.218 292.628s-37.809 211.889-101.218 292.628zM512 723.692c55.926 0 107.914-16.542 151.631-45.292l140.997 140.997c-80.738 63.409-182.351 101.218-292.628 101.218s-211.889-37.809-292.628-101.218l140.997-140.997c43.717 28.751 95.705 45.292 151.631 45.292zM512 172.308c-55.926 0-107.914 16.542-151.631 45.292l-140.997-140.997c80.738-63.409 182.351-101.218 292.628-101.218s211.889 37.809 292.628 101.218l-140.997 140.997c-43.717-28.751-95.705-45.292-151.631-45.292z" />
<glyph unicode="&#xe915;" glyph-name="loan" d="M422.991 392.074l-112.64-0.394 149.662 149.662 55.926-55.926zM436.775 483.446v198.498l79.163 79.557v-278.055zM768 448c-141.391 0-256-114.609-256-256s114.609-256 256-256 256 114.609 256 256-114.609 256-256 256zM795.569 69.514v-46.868h-3.151l-40.172 20.874v23.237c-19.692 1.575-36.628 6.695-52.382 14.966l-1.575 1.182-1.182 0.788 0.394 1.575 0.394 2.363 4.726 31.902 0.788 5.514 0.394 3.545 3.151-1.969 4.726-3.151c18.117-11.815 38.203-18.511 56.714-18.511 21.662 0 35.052 11.028 35.052 28.751s-7.089 24.812-40.172 39.778c-48.049 22.055-63.803 38.597-63.803 72.074 0 33.083 21.662 57.108 53.169 64.197v43.323h4.332l38.991-20.086v-22.449c15.754-1.969 24.418-5.908 35.446-12.209l1.969-1.182 1.182-0.788-0.394-1.575-0.394-2.363-5.12-31.114-0.788-5.908-0.788-3.938-7.877 5.908c-12.997 9.846-29.145 15.754-44.505 15.754-20.48 0-31.902-9.452-31.902-24.812 0-14.572 7.089-21.662 40.172-36.234 48.443-22.055 63.409-39.385 63.409-75.225 0-33.871-19.298-58.289-50.806-67.348zM445.834 101.022c-201.255 13.785-360.369 181.563-360.369 386.363 0 213.858 173.292 387.151 387.151 387.151 204.8 0 372.578-159.114 386.363-360.369 30.72-8.665 59.471-21.662 86.252-38.203 0 3.938 0 7.483 0 11.422 0 261.12-211.495 472.615-472.615 472.615s-472.615-211.495-472.615-472.615 211.495-472.615 472.615-472.615c3.938 0 7.483 0 11.422 0-16.542 26.782-29.538 55.532-38.203 86.252z" />
<glyph unicode="&#xe916;" glyph-name="forward" d="M390.954 614.932l55.698 55.698 222.791-222.791-55.698-55.698-222.791 222.791zM390.88 280.819l222.791 222.791 55.698-55.698-222.791-222.791-55.698 55.698z" />
<glyph unicode="&#xe917;" glyph-name="home" d="M118.154 329.846v-315.077c0-21.662 17.329-39.385 38.991-39.385h354.855v315.077h236.308v-315.077h118.548c21.268 0 38.991 17.723 38.991 39.385v315.077l-393.846 315.077-393.846-315.077zM354.462 172.308h-118.154v78.769h196.923l-78.769-78.769zM512 881.231l-512-433.231 78.769-78.769 433.231 354.462 433.231-354.462 78.769 78.769-512 433.231z" />
<glyph unicode="&#xe918;" glyph-name="myprofile" d="M635.668 438.942c-37.022-18.511-79.163-29.145-123.668-29.145s-86.252 10.634-123.668 29.145c-155.175-37.809-270.178-177.625-270.178-344.615v-78.769h787.692v78.769c0 166.991-115.003 306.806-270.178 344.615zM630.154 133.711h-118.154v78.769h196.923l-78.769-78.769zM512 488.172c108.702 0 196.923 88.222 196.923 196.923s-88.222 196.923-196.923 196.923-196.923-88.222-196.923-196.923c0-108.702 88.222-196.923 196.923-196.923z" />
<glyph unicode="&#xe919;" glyph-name="search" d="M719.951 318.818c42.535 58.289 67.742 130.363 67.742 207.951 0 195.742-158.72 354.462-354.462 354.462s-354.462-158.72-354.462-354.462 158.72-354.462 354.462-354.462c77.588 0 149.662 25.206 207.951 67.742l225.28-225.28 78.769 78.769-225.28 225.28zM590.769 526.769c0 87.040-70.498 157.538-157.538 157.538v78.769c130.363 0 236.308-105.945 236.308-236.308h-78.769z" />
<glyph unicode="&#xe91a;" glyph-name="facebook" d="M512 920.615c-261.12 0-472.615-211.495-472.615-472.615s211.495-472.615 472.615-472.615c261.12 0 472.615 211.495 472.615 472.615s-211.495 472.615-472.615 472.615zM641.969 633.108h-54.745c-40.566 0-47.655-20.48-47.655-48.443v-61.834h96.098l-12.997-98.462h-83.102v-252.062h-98.462v252.062h-86.646v98.462h86.646v71.286c0 83.889 51.2 129.575 125.637 129.575 35.84 0 63.409-2.757 75.225-3.938v-86.646z" />
<glyph unicode="&#xe91b;" glyph-name="googleplus" d="M510.425 920.615c-260.332 0-471.040-210.708-471.040-471.040 0-259.938 210.708-471.040 471.040-471.040s471.040 210.708 471.040 471.040c0 260.332-211.102 471.040-471.040 471.040zM412.357 230.991c-120.911 0-218.585 97.674-218.585 218.585s97.674 218.585 218.585 218.585c56.714 0 108.702-21.662 147.298-57.108l-64.591-63.015c-22.449 18.905-51.2 30.326-83.102 30.326-70.892 0-128.788-57.502-128.788-128.788 0-70.892 57.502-128.394 128.788-128.394 55.138 0 102.006 32.295 120.123 83.495h-122.486v90.585h216.615c3.151-15.754 4.726-29.932 4.726-45.686 0-120.517-98.068-218.585-218.585-218.585zM807.385 432.246v-74.831h-55.138v74.831h-78.769v55.138h78.769v78.769h55.138v-78.769h74.831v-55.138h-74.831z" />
<glyph unicode="&#xe91c;" glyph-name="instagram" d="M610.462 446.818c0-54.379-44.083-98.462-98.462-98.462s-98.462 44.083-98.462 98.462c0 54.379 44.083 98.462 98.462 98.462s98.462-44.083 98.462-98.462zM742.4 620.898c-5.514 13.785-11.815 23.631-22.055 33.871s-20.086 16.542-33.871 22.055c-10.24 3.938-25.994 8.665-54.745 10.24-31.114 1.575-40.566 1.575-119.335 1.575s-88.222-0.394-119.335-1.575c-28.751-1.182-44.505-6.302-54.745-10.24-13.785-5.514-23.631-11.815-33.871-22.055s-16.542-20.086-22.055-33.871c-3.938-10.24-8.665-25.994-10.24-54.745-1.575-31.114-1.575-40.566-1.575-119.335s0.394-88.222 1.575-119.335c1.182-28.751 6.302-44.505 10.24-54.745 5.514-13.785 11.815-23.631 22.055-33.871s20.086-16.542 33.871-22.055c10.24-3.938 25.994-8.665 54.745-10.24 31.114-1.575 40.566-1.575 119.335-1.575s88.222 0.394 119.335 1.575c28.751 1.182 44.505 6.302 54.745 10.24 13.785 5.514 23.631 11.815 33.871 22.055s16.935 20.086 22.055 33.871c3.938 10.24 8.665 25.994 10.24 54.745 1.575 31.114 1.575 40.566 1.575 119.335s-0.394 88.222-1.575 119.335c-1.575 28.751-6.302 44.505-10.24 54.745zM512 294.794c-83.889 0-151.631 67.742-151.631 151.631s67.742 151.631 151.631 151.631c83.889 0 151.631-67.742 151.631-151.631 0-83.495-67.742-151.631-151.631-151.631zM669.932 568.911c-19.692 0-35.446 15.754-35.446 35.446s15.754 35.446 35.446 35.446c19.692 0 35.446-15.754 35.446-35.446s-16.148-35.446-35.446-35.446zM512 919.434c-261.12 0-472.615-211.495-472.615-472.615s211.495-472.615 472.615-472.615c261.12 0 472.615 211.495 472.615 472.615 0 260.726-211.495 472.615-472.615 472.615zM805.809 324.726c-1.575-31.508-6.302-52.775-13.785-71.68-7.483-19.298-17.723-35.84-34.265-52.382s-33.083-26.388-52.382-34.265c-18.905-7.483-40.172-12.209-71.68-13.785s-41.748-1.969-121.698-1.969c-80.345 0-90.191 0.394-121.698 1.969s-52.775 6.302-71.68 13.785c-19.298 7.483-35.84 17.723-52.382 34.265s-26.388 33.083-34.265 52.382c-7.483 18.905-12.209 40.172-13.785 71.68s-1.969 41.748-1.969 121.698c0 80.345 0.394 90.191 1.969 121.698s6.302 52.775 13.785 71.68c7.483 19.298 17.723 35.84 34.265 52.382s33.083 26.388 52.382 34.265c18.905 7.483 40.172 12.209 71.68 13.785s41.748 1.969 121.698 1.969c80.345 0 90.191-0.394 121.698-1.969s52.775-6.302 71.68-13.785c19.298-7.483 35.84-17.723 52.382-34.265s26.388-33.083 34.265-52.382c7.483-18.905 12.209-40.172 13.785-71.68s1.969-41.748 1.969-121.698c-0.394-79.951-0.788-90.191-1.969-121.698z" />
<glyph unicode="&#xe91d;" glyph-name="linkedin" d="M513.575 917.465c-259.938 0-471.040-210.708-471.040-471.040s211.102-471.040 471.040-471.040c259.938 0 471.040 210.708 471.040 471.040s-210.708 471.040-471.040 471.040zM393.846 251.077h-110.277v326.892h110.277v-326.892zM338.314 622.080c-34.658 0-62.622 25.6-62.622 56.714 0 31.508 27.963 56.714 62.622 56.714s62.622-25.6 62.622-56.714c0-31.508-27.963-56.714-62.622-56.714zM787.692 251.077h-110.277v177.231c0 36.234-15.754 72.074-57.895 72.074s-64.197-36.234-64.197-72.862v-176.443h-106.338v326.892h106.338v-46.868c31.508 37.809 58.683 54.745 105.551 54.745 46.474 0 126.818-23.237 126.818-150.449v-184.32z" />
<glyph unicode="&#xe91e;" glyph-name="insurancecar" d="M908.358 149.031c0 17.047-13.865 30.912-30.912 30.912-17.080 0-30.945-13.865-30.945-30.912 0-17.080 13.865-30.912 30.945-30.912 17.047 0 30.912 13.832 30.912 30.912v0zM640.369 149.031c0 17.047-13.865 30.912-30.945 30.912-17.047 0-30.912-13.865-30.912-30.912 0-17.080 13.865-30.912 30.912-30.912 17.080 0 30.945 13.832 30.945 30.912v0zM588.827 241.8h309.216l-30.912 103.050h-247.393l-30.912-103.050zM968.306 179.943h-18.721v-183.628c0-12.425-14.769-22.472-27.161-22.472h-22.572c-12.391 0-32.687 10.047-32.687 22.472v18.755h-267.99v-18.755c0-12.425-0.904-22.472-13.296-22.472h-26.089c-12.391 0-22.472 10.047-22.472 22.472v183.628h-18.721c-12.425 0-22.539 4.454-22.539 16.846v22.539c0 12.425 10.081 22.472 22.539 22.472h23.108l42.6 139.99c0.737 2.378 3.349 4.287 5.794 4.287h308.178c2.478 0 5.091-1.942 5.76-4.32l40.825-139.956h23.443c12.425 0 22.506-10.047 22.506-22.472v-22.539c0-12.391-10.047-16.846-22.506-16.846v0zM470.338 124.851c-27.228 15.439-41.26 43.805-41.26 71.937v22.539c0 5.459 0.603 10.75 1.541 15.941-43.47 4.622-84.027 19.056-118.79 41.963l-136.875-136.909c78.133-61.622 176.829-98.428 284.065-98.428 3.818 0 7.535 0.402 11.32 0.469v82.487zM191.23 500.948c0 54.355 16.209 104.959 44.073 147.19l-136.909 136.909c-61.589-78.133-98.395-176.829-98.395-284.099s36.772-205.966 98.395-284.099l136.909 136.909c-27.897 42.231-44.073 92.835-44.073 147.19v0zM459.019 768.737c54.388 0 104.992-16.209 147.224-44.073l136.875 136.875c-78.133 61.656-176.829 98.462-284.099 98.462-107.236 0-205.932-36.772-284.065-98.462l136.875-136.875c42.231 27.897 92.835 44.073 147.19 44.073v0zM682.768 648.138l136.875 136.909c61.656-78.133 98.428-176.829 98.428-284.099 0-16.98-1.239-33.624-3.014-50.102-5.459 1.306-11.018 2.21-16.779 2.21h-176.193c2.813 15.606 4.756 31.514 4.756 47.891 0 54.355-16.176 104.959-44.073 147.19v0z" />
<glyph unicode="&#xe91f;" glyph-name="pinterest" d="M511.212 920.615c-261.12 0-472.615-211.495-472.615-472.615s211.495-472.615 472.615-472.615c261.12 0 472.615 211.495 472.615 472.615s-211.495 472.615-472.615 472.615zM549.415 314.88c-35.84 2.757-51.2 20.48-79.163 37.809-15.36-81.526-34.265-159.114-90.585-200.074-17.329 122.88 25.6 215.434 45.292 313.108-33.871 57.108 3.938 171.717 75.618 143.36 87.828-34.658-76.012-211.889 33.871-233.945 115.003-23.237 161.871 199.286 90.585 271.754-102.794 104.369-299.717 2.363-275.692-147.298 5.908-36.628 43.717-47.655 14.966-98.068-65.772 14.572-85.465 66.56-83.102 135.877 3.938 113.428 102.006 192.985 200.074 203.618 124.062 13.785 240.64-45.686 256.788-162.265 18.511-131.545-55.926-274.117-188.652-263.877z" />
<glyph unicode="&#xe920;" glyph-name="twitter" d="M512 920.615c-261.12 0-472.615-211.495-472.615-472.615s211.495-472.615 472.615-472.615c261.12 0 472.615 211.495 472.615 472.615s-211.495 472.615-472.615 472.615zM747.126 559.852c0.394-4.726 0.394-9.846 0.394-14.572 0-148.874-122.092-320.591-345.403-320.591-68.923 0-132.726 18.511-186.289 50.412 9.846-1.182 19.298-1.575 29.145-1.575 56.714 0 109.095 17.723 150.843 48.049-53.169 1.182-98.068 33.477-113.428 77.982 7.483-1.182 14.966-1.969 22.843-1.969 11.028 0 14.178 1.575 24.025 3.938-55.532 11.422-104.763 56.714-104.763 111.458v1.575c0-8.271 42.535-13.785 62.622-14.178-32.689 20.086-50.018 54.745-50.018 93.735 0 20.874 7.877 40.172 18.511 56.714 59.865-68.529 150.449-113.034 251.274-117.76-1.969 8.271-2.363 16.935-2.363 25.994 0 62.228 54.351 112.64 121.698 112.64 35.052 0 66.56-13.391 88.615-35.446 27.569 4.726 53.957 14.178 77.194 27.175-9.058-25.994-27.963-48.049-53.169-62.228 24.418 2.363 48.049 8.665 70.105 17.329-17.329-22.843-38.203-42.535-61.834-58.683z" />
<glyph unicode="&#xe921;" glyph-name="youtube" d="M456.862 369.625l163.052 84.677-163.052 85.071zM515.151 919.040c-261.12 0-472.615-211.495-472.615-472.615s211.495-472.615 472.615-472.615c261.12 0 472.615 211.495 472.615 472.615s-211.495 472.615-472.615 472.615zM819.2 425.157c0-48.837-7.877-97.674-7.877-97.674s-6.695-41.748-24.812-59.865c-22.843-24.025-49.231-24.025-61.046-25.6-84.283-6.302-211.495-6.302-211.495-6.302s-157.145 1.575-205.194 5.908c-13.391 2.363-43.717 1.575-66.56 25.994-18.117 18.511-19.692 59.865-19.692 59.865s-1.969 48.837-1.969 97.674v45.686c0 48.837 1.575 97.674 1.575 97.674s3.545 41.748 21.662 59.865c22.843 24.025 47.655 28.357 59.471 29.538 84.677 6.695 210.314 10.634 210.314 10.634h0.394c0 0 126.818-3.938 211.102-10.24 11.815-1.575 37.415-3.545 60.652-27.569 18.117-18.511 25.994-61.046 25.994-61.046s7.877-50.018 7.877-98.855v-45.686z" />
<glyph unicode="&#xe922;" glyph-name="savings" d="M709.711 782.769c0-76.13-61.716-137.846-137.846-137.846s-137.846 61.716-137.846 137.846c0 76.13 61.716 137.846 137.846 137.846s137.846-61.716 137.846-137.846zM945.231 448h-40.96c-16.148 92.554-68.529 173.686-143.36 230.006-37.022-66.56-107.914-111.852-189.44-111.852-100.825 0-185.895 69.317-209.92 163.052-5.514-2.363-10.634-4.726-16.148-7.089l-102.006 80.345-3.151-150.055c-38.203-35.446-68.923-78.375-89.403-126.031-0.394 0-0.788 0-1.182 0h-63.015c-25.994 0-47.262-21.268-47.262-47.262v-141.785c0-25.994 21.268-47.262 47.262-47.262h48.837c27.175-96.098 94.523-177.231 183.532-226.068v-64.985c0-12.997 10.634-23.631 23.631-23.631h70.892c12.997 0 23.631 10.634 23.631 23.631v23.237c25.6-4.726 51.988-7.483 78.769-7.483s53.169 2.757 78.769 7.483v-23.237c0-12.997 10.634-23.631 23.631-23.631h70.892c12.997 0 23.631 10.634 23.631 23.631v65.378c112.64 61.44 190.228 174.474 196.529 304.837h35.84c21.662 0 39.385 17.723 39.385 39.385s-17.723 39.385-39.385 39.385zM338.708 448c-32.689 0-59.077 26.388-59.077 59.077s26.388 59.077 59.077 59.077 59.077-26.388 59.077-59.077-26.388-59.077-59.077-59.077z" />
<glyph unicode="&#xe923;" glyph-name="checkmark" d="M165.415 405.465l55.532 55.926 194.954-194.954 445.834 445.44 55.532-55.532-501.366-501.366z" />
<glyph unicode="&#xe924;" glyph-name="close" d="M240.246 108.898l-61.44 61.44 278.843 278.449-272.935 272.935 55.532 55.532 272.935-272.935 278.449 278.843 61.44-61.44-278.843-278.449 278.843-278.449-55.926-55.926-278.449 278.843z" />
<glyph unicode="&#xe925;" glyph-name="telephone" d="M934.203 135.286l-200.074 167.778c-9.846 8.271-25.6 7.877-35.052-1.575l-29.145-29.145c-1.969-1.969-3.938-3.938-5.908-5.908l-60.258-60.258c-73.649 26.782-145.329 72.074-204.012 130.363-60.258 60.258-103.975 130.363-130.363 204.012l60.258 60.258c1.969 1.969 3.938 3.938 5.908 5.908l29.145 29.145c9.058 9.058 9.452 25.206 1.182 35.052l-167.385 200.074c-8.271 9.846-22.449 10.634-31.902 1.182l-75.225-74.831c-1.575-1.575-3.545-2.757-4.332-4.332l-9.058-9.058-0.394 0.394h-0.788c-11.815-200.862 58.683-405.268 211.889-558.474s357.612-223.705 558.474-211.889l-0.394 0.788 9.058 9.058c1.575 1.575 2.757 2.757 4.332 4.332l75.225 75.225c9.452 9.058 9.058 23.631-1.182 31.902z" />
<glyph unicode="&#xe926;" glyph-name="bbvaoffice" d="M509.637 527.951l35.052 53.169c9.058 13.391 10.634 21.662 10.634 31.114 0 25.994-22.843 48.049-48.837 48.049h-53.563v-315.077h29.932c50.018 0 88.222 27.569 88.222 91.766 0 53.563-24.418 81.92-61.44 90.978zM512 920.615c-217.403 0-393.846-176.443-393.846-393.846 0-3.938 0-7.877 0-11.815 7.877-347.766 360.763-569.895 360.763-569.895 18.117-12.209 47.262-12.209 64.985-0.394 0 0 353.674 222.523 361.551 570.289 0 3.938 0 7.877 0 11.815 0.394 217.403-176.049 393.846-393.452 393.846zM547.446 306.215h-173.292v393.846h179.594c84.283 0 113.428-65.378 70.892-126.031l-20.086-28.357c140.997-70.105 94.917-239.458-57.108-239.458z" />
<glyph unicode="&#xe927;" glyph-name="place" d="M512 920.615c-217.403 0-393.846-176.443-393.846-393.846 0-3.938 0-7.877 0-11.815 7.877-347.766 360.763-569.895 360.763-569.895 18.117-12.209 47.262-12.209 64.985-0.394 0 0 353.674 222.523 361.551 570.289 0 3.938 0 7.877 0 11.815 0.394 217.403-176.049 393.846-393.452 393.846zM512 329.846c-108.702 0-196.923 88.222-196.923 196.923s88.222 196.923 196.923 196.923 196.923-88.222 196.923-196.923-88.222-196.923-196.923-196.923z" />
<glyph unicode="&#xe928;" glyph-name="getout" d="M515.938 920.615c-261.12 0-472.615-211.495-472.615-472.615s211.495-472.615 472.615-472.615 472.615 211.495 472.615 472.615-211.495 472.615-472.615 472.615zM588.012 203.815l-56.32 56.32 147.692 147.298-478.523-1.575 78.769 77.588h400.935l-150.449 151.237 56.32 56.714 244.578-244.578-243.003-243.003z" />
<glyph unicode="&#xe929;" glyph-name="auto" d="M941.686 526.769h-44.898l-77.982 267.422c-1.182 4.726-6.302 8.271-11.028 8.271h-588.8c-4.726 0-9.846-3.545-11.028-8.271l-81.526-267.422h-44.111c-23.631 0-42.929-19.298-42.929-42.929v-42.929c0-23.631 19.298-44.111 42.929-44.111h35.84v-210.708c0-1.575 0-3.151 0-4.726v-124.062c0-23.631 19.298-42.929 42.929-42.929h49.625c23.631 0 41.354 19.298 41.354 42.929v36.234h515.938v-35.84c0-23.631 19.298-42.929 42.929-42.929h42.929c23.631 0 51.988 19.298 51.988 42.929v339.102h35.84c23.631 0 42.929 20.086 42.929 44.111v42.929c0 23.631-19.298 42.929-42.929 42.929zM275.692 723.692h472.615l59.077-196.923h-590.769l59.077 196.923zM256 290.462c-32.689 0-59.077 26.388-59.077 59.077s26.388 59.077 59.077 59.077c32.689 0 59.077-26.388 59.077-59.077s-26.388-59.077-59.077-59.077zM768 290.462c-32.689 0-59.077 26.388-59.077 59.077s26.388 59.077 59.077 59.077 59.077-26.388 59.077-59.077c0-32.689-26.388-59.077-59.077-59.077z" />
<glyph unicode="&#xe92a;" glyph-name="autobank" d="M945.231 920.615h-905.846v-905.846h87.828v818.018h818.018zM963.742 451.938h-38.203l-66.166 226.462c-1.182 3.938-5.514 5.908-9.452 5.908h-500.185c-3.938 0-8.271-1.969-9.452-5.908l-69.317-226.462h-37.415c-20.086 0-36.628-18.117-36.628-38.597v-36.628c0-20.086 16.542-35.052 36.628-35.052h30.326v-181.169c0-1.182 0-2.363 0-3.938v-105.551c0-20.086 16.148-36.628 36.628-36.628h42.142c20.086 0 35.446 16.542 35.446 36.628v30.72h437.169v-30.326c0-20.086 17.329-36.628 37.415-36.628h36.628c20.086 0 44.111 16.542 44.111 36.628v290.265h30.326c20.086 0 36.628 14.966 36.628 35.052v36.628c0 20.086-16.542 38.597-36.628 38.597zM397.785 617.354h401.723l50.412-165.415h-502.548l50.412 165.415zM389.908 231.385c-32.689 0-59.077 26.388-59.077 59.077s26.388 59.077 59.077 59.077c32.689 0 59.077-26.388 59.077-59.077s-26.388-59.077-59.077-59.077zM807.385 231.385c-32.689 0-59.077 26.388-59.077 59.077s26.388 59.077 59.077 59.077 59.077-26.388 59.077-59.077c0-32.689-26.388-59.077-59.077-59.077z" />
<glyph unicode="&#xe92b;" glyph-name="bank" d="M78.769 93.538h866.462v-78.769h-866.462v78.769zM510.425 920.615l-431.655-236.308v-78.769h866.462v78.769zM157.538 526.769h157.538v-354.462h-157.538v354.462zM433.231 526.769h157.538v-354.462h-157.538v354.462zM708.923 526.769h157.538v-354.462h-157.538v354.462z" />
<glyph unicode="&#xe92c;" glyph-name="blog" d="M512 920.615c-260.726 0-472.615-211.889-472.615-472.615s211.889-472.615 472.615-472.615 472.615 211.889 472.615 472.615-211.889 472.615-472.615 472.615zM488.369 247.138h-252.062v239.852l118.548 153.994h112.64l-120.517-157.538h141.391v-236.308zM787.692 247.138h-252.062v239.852l118.548 153.994h112.64l-120.517-157.538h141.391v-236.308z" />
<glyph unicode="&#xe92d;" glyph-name="taxes" d="M182.857 850.26c0 20.212 16.272 36.597 36.33 36.597h585.626c20.064 0 36.33-16.365 36.33-36.597v-804.521c0-20.212-16.272-36.597-36.33-36.597h-585.626c-20.064 0-36.33 16.365-36.33 36.597v804.521zM663.771 263.534c40.411 0 73.143 32.914 73.143 73.545s-32.731 73.545-73.143 73.545c-40.411 0-73.143-32.914-73.143-73.545s32.731-73.545 73.143-73.545zM407.771 265.143l329.143 365.714h-109.714l-329.143-365.714h109.714zM371.2 631.296c-40.411 0-73.143-32.951-73.143-73.582 0-40.594 32.731-73.545 73.143-73.545s73.143 32.951 73.143 73.545c0 40.631-32.731 73.582-73.143 73.582zM621.714 45.714l-36.571-36.571h73.143v36.571h-36.571zM731.429 45.714l-36.571-36.571h73.143v36.571h-36.571zM512 45.714l-36.571-36.571h73.143v36.571h-36.571zM402.286 45.714l-36.571-36.571h73.143v36.571h-36.571zM292.571 45.714l-36.571-36.571h73.143v36.571h-36.571zM621.714 850.286l36.571 36.571h-73.143v-36.571h36.571zM731.429 850.286l36.571 36.571h-73.143v-36.571h36.571zM512 850.286l36.571 36.571h-73.143v-36.571h36.571zM402.286 850.286l36.571 36.571h-73.143v-36.571h36.571zM292.571 850.286l36.571 36.571h-73.143v-36.571h36.571z" />
<glyph unicode="&#xe92e;" glyph-name="bar" d="M958.622 753.625l-222.129-0.394v99.249c0 14.966-10.634 28.751-25.994 28.751h-644.726c-14.966 0-26.388-13.785-26.388-28.751v-848.345c0-14.966 11.422-28.751 26.388-28.751h645.12c14.966 0 25.994 13.785 25.994 28.751v173.292l222.129-0.394c13.785 0 25.994 11.028 25.994 24.812v526.966c-0.394 13.785-12.603 24.812-26.388 24.812zM244.185 408.615h-2.757l-79.951 79.163v271.36h82.708v-350.523zM862.523 306.215h-126.031v326.892h126.031v-326.892z" />
<glyph unicode="&#xe92f;" glyph-name="barcode" d="M962.954 802.462h-901.908c-12.209 0-21.662-9.452-21.662-20.874v-666.782c0-11.422 9.846-20.874 21.662-20.874h901.514c12.209 0 21.662 9.452 21.662 20.874v666.782c0.394 11.422-9.452 20.874-21.268 20.874zM236.308 211.692h-78.769v472.615h78.769v-472.615zM393.846 211.692h-78.769v78.769h78.769v-78.769zM393.846 369.231h-78.769v315.077h78.769v-315.077zM551.385 211.692h-78.769v78.769h78.769v-78.769zM551.385 369.231h-78.769v315.077h78.769v-315.077zM708.923 211.692h-78.769v78.769h78.769v-78.769zM708.923 369.231h-78.769v315.077h78.769v-315.077zM866.462 211.692h-78.769v472.615h78.769v-472.615z" />
<glyph unicode="&#xe930;" glyph-name="bookstore" d="M827.077 802.462c0-228.431 0-517.908 0-747.914-3.938 0-371.003-0.394-579.742-0.394-67.742 0-66.56 78.769 0.394 78.769 109.095 0 496.64 0 500.578 0 0 232.369 0 559.262 0 787.692-200.862 0-335.557 0-534.843 0-11.422-3.938-23.631-6.302-34.265-11.815-36.628-18.511-58.289-49.231-61.046-90.585 0-1.575 0-3.151 0-5.12 0-211.495 0-518.695 0-730.191 0-51.2 35.446-92.948 85.071-104.763 9.452-2.363 18.905-2.757 28.751-2.757 228.431 0 445.44 0 673.871 0 0 247.729 0 578.954 0 827.077-15.754 0-59.077 0-78.769 0zM275.692 763.077h315.077l-78.769-78.769h-236.308v78.769z" />
<glyph unicode="&#xe931;" glyph-name="build" d="M157.538 881.231v-838.892c0-14.178 15.754-27.569 29.932-27.569h210.314v185.108h192.985v-185.108h214.646c14.178 0 21.662 12.997 21.662 39.385v866.462l-669.538-39.385zM354.462 329.846h-118.154v118.154h118.154v-118.154zM354.462 530.708h-118.154v114.215h118.154v-114.215zM551.385 329.846h-118.154v118.154h118.154v-118.154zM551.385 530.708h-118.154v114.215h118.154v-114.215zM748.308 329.846h-118.154v118.154h118.154v-118.154zM748.308 530.708h-118.154v114.215h118.154v-114.215z" />
<glyph unicode="&#xe932;" glyph-name="cashregister" d="M944.049 471.631c0.788 2.363 1.182 5.12 1.182 7.877v378.092c0 12.997-10.634 23.631-23.631 23.631h-473.009c-12.997 0-23.631-10.634-23.631-23.631v-252.062h-322.56c-12.997 0-23.631-10.634-23.631-23.631v-543.508c0-12.997 10.634-23.631 23.631-23.631h818.018c12.997 0 23.631 10.634 23.631 23.631v433.231zM177.231 507.077h78.769v-78.769h-78.769v78.769zM302.868 507.077h78.769v-78.769h-78.769v78.769zM428.898 507.077h78.769v-78.769h-78.769v78.769zM177.231 381.046h78.769v-78.769h-78.769v78.769zM302.868 381.046h78.769v-78.769h-78.769v78.769zM428.898 381.046h78.769v-78.769h-78.769v78.769zM177.231 255.015h78.769v-78.769h-78.769v78.769zM302.868 255.015h204.406v-78.769h-204.406v78.769zM819.988 408.615c-27.175 0-49.231 22.055-49.231 49.231s22.055 49.231 49.231 49.231 49.231-22.055 49.231-49.231-22.055-49.231-49.231-49.231v0 0zM507.274 802.462h361.945v-175.655h-361.945v175.655zM742.794 677.218l74.437 74.831v3.938h-250.092v-78.769h175.655z" />
<glyph unicode="&#xe933;" glyph-name="coffeshop" d="M39.385 93.538h866.462v-94.523h-866.462v94.523zM959.803 881.231h-881.034v-539.569c0-112.246 90.191-173.292 201.649-173.292h292.234c111.458 0 214.646 61.046 214.646 173.292v185.108h172.111c13.391 0 24.812 11.815 24.812 25.6v296.172c0.394 13.785-10.634 32.689-24.418 32.689zM196.923 574.425v188.652h78.769v-275.692l-78.769 87.040zM905.846 605.538h-118.154v196.923h118.154v-196.923z" />
<glyph unicode="&#xe934;" glyph-name="discount" d="M984.615 577.575v199.286c0 14.572-5.514 29.538-19.692 29.538h-894.031c-14.178 0-31.508-14.966-31.508-29.538v-199.286c66.954 0 124.455-57.502 124.455-128.394s-57.502-128.394-124.455-128.394v-199.68c0-14.572 17.329-23.631 31.508-23.631h894.031c14.178 0 19.692 9.058 19.692 23.631v199.286c-66.954 0-124.455 57.502-124.455 128.394 0 71.286 57.502 128.788 124.455 128.788zM360.369 649.255c43.323 0 78.769-35.446 78.769-79.163s-35.446-79.163-78.769-79.163-78.769 35.446-78.769 79.163c0 43.717 35.446 79.163 78.769 79.163zM675.446 253.44c-43.323 0-78.769 35.446-78.769 79.163s35.446 79.163 78.769 79.163 78.769-35.446 78.769-79.163c0-43.717-35.446-79.163-78.769-79.163zM399.754 255.015h-118.154l354.462 397.785h118.154l-354.462-397.785z" />
<glyph unicode="&#xe935;" glyph-name="donation" d="M512 920.615c-261.12 0-472.615-211.495-472.615-472.615s211.495-472.615 472.615-472.615 472.615 211.495 472.615 472.615-211.495 472.615-472.615 472.615zM697.108 684.308c43.323 0 78.769-35.446 78.769-78.769s-35.446-78.769-78.769-78.769-78.769 35.446-78.769 78.769c0 43.323 35.446 78.769 78.769 78.769zM326.892 684.308c43.323 0 78.769-35.446 78.769-78.769s-35.446-78.769-78.769-78.769-78.769 35.446-78.769 78.769c0 43.323 35.446 78.769 78.769 78.769zM773.514 339.298c-32.689-115.003-137.058-195.742-261.12-195.742s-228.431 80.738-261.12 195.742c-4.332 14.966 7.089 29.932 22.843 29.932h476.16c16.148 0 27.569-14.966 23.237-29.932z" />
<glyph unicode="&#xe936;" glyph-name="education" d="M218.585 394.831v-179.2l313.108-171.323 313.108 171.323v179.594l-313.108-171.717-313.108 171.323zM531.692 851.298l-492.308-268.997 492.308-268.997 402.905 220.16v-309.957h89.403v358.794l-492.308 268.997z" />
<glyph unicode="&#xe937;" glyph-name="entretainment" d="M984.615 595.692v199.68c0 14.572-11.422 26.782-25.6 26.782h-604.554v-157.538h-78.769v157.538h-210.708c-14.178 0-25.6-12.209-25.6-26.782v-199.286c66.954 0 124.455-57.502 124.455-128.394s-57.502-128.394-124.455-128.394v-199.286c0-14.572 11.422-26.388 25.6-26.388h210.708v157.538h78.769v-157.538h604.554c14.178 0 25.6 11.422 25.6 26.388v199.286c-68.923 0-124.455 57.502-124.455 128.394 0 70.498 55.532 128 124.455 128zM354.462 388.923h-78.769v165.415h78.769v-165.415z" />
<glyph unicode="&#xe938;" glyph-name="executive" d="M708.923 684.308c0-108.758-88.165-196.923-196.923-196.923s-196.923 88.165-196.923 196.923c0 108.758 88.165 196.923 196.923 196.923s196.923-88.165 196.923-196.923zM635.668 437.366c-25.994-12.997-55.532-22.055-84.283-26.388v-2.757l39.385-276.086-78.769-78.769-78.769 78.769 39.385 276.086v2.757c-32.295 4.332-58.289 13.391-84.283 26.388-155.175-37.809-270.178-177.625-270.178-344.615v-77.982h787.692v77.982c0 166.991-115.003 306.806-270.178 344.615z" />
<glyph unicode="&#xe939;" glyph-name="florist" d="M467.102 126.622v272.542c-89.797 24.025-155.963 105.945-155.963 203.225 0 0.394 0 0.788 0 1.182v313.108h7.089l133.12-133.12v133.12h7.089l133.12-133.12v133.12h7.089l133.12-134.302v-178.806c0-0.394 0-0.788 0-1.182 0-99.249-68.529-182.351-161.083-204.406v-261.12l296.172 296.96c0 0 22.449-230.794-50.412-340.283-62.228-93.735-205.982-116.972-246.154-121.305v-0.394h-3.938c-4.332-0.394-6.302-0.788-6.302-0.788v0.394h-93.342v-0.788c0 0-183.926 12.997-256.394 122.486s-50.412 340.283-50.412 340.283l307.2-306.806z" />
<glyph unicode="&#xe93a;" glyph-name="furniture" d="M402.117 327.483l77.194-82.314 118.942 140.603 188.652-253.243h39.778v473.009h-630.548v-472.615h53.169l152.812 194.56zM307.988 548.431c27.963 0 52.382-24.418 52.382-52.382s-24.418-52.382-52.382-52.382-52.382 24.418-52.382 52.382 20.874 52.382 52.382 52.382zM957.834 763.077h-170.142l-253.243 190.228c-6.302 4.332-14.178 6.695-21.662 6.695-7.877 0-15.36-2.363-21.268-7.089l-256-189.834h-171.323c-14.178 0-25.994-11.815-25.994-25.994v-736.098c0-14.178 11.815-25.994 25.994-25.994h893.637c14.178 0 25.994 11.815 25.994 25.994v736.098c-0.394 14.178-11.815 25.994-25.994 25.994zM512.788 878.474l156.357-115.397h-315.471l159.114 115.397zM905.846 54.154l-787.692-1.182v623.458l787.692 1.182v-623.458z" />
<glyph unicode="&#xe93b;" glyph-name="health" d="M512 920.615c-261.12 0-472.615-211.495-472.615-472.615s211.495-472.615 472.615-472.615 472.615 211.495 472.615 472.615-211.495 472.615-472.615 472.615zM748.308 369.231h-157.538v-157.538h-157.538v157.538h-157.538v157.538h157.538v157.538h157.538v-157.538h157.538v-157.538z" />
<glyph unicode="&#xe93c;" glyph-name="hotel" d="M866.462 896.985c0 12.997-10.634 23.631-23.631 23.631h-661.662c-12.997 0-23.631-10.634-23.631-23.631v-897.969c0-12.997 10.634-23.631 23.631-23.631h661.662c12.997 0 23.631 10.634 23.631 23.631v897.969zM418.265 188.062l-21.662-20.874 5.12-29.538c0-0.394 0-1.575 0-1.575 0-1.182-0.788-3.151-1.969-3.151 0 0 0 0 0 0-0.394 0-0.788 1.182-0.788 1.182l-26.782 14.572-26.782-13.785c-0.788-0.394-1.575 0-2.363 0.394s-0.788 1.182-0.788 1.969l5.12 29.538-21.662 20.874c-0.394 0.394-0.788 1.182-0.394 1.969s0.788 1.182 1.575 1.575l29.932 4.332 13.391 27.175c0.394 0.788 1.182 1.182 1.969 1.182s1.575-0.394 1.969-1.182l13.391-27.175 29.932-4.332c0.788 0 1.575-0.788 1.575-1.575 0-0.394 0-1.182-0.788-1.575zM555.323 188.062l-21.662-20.874 5.12-29.538c0-0.394 0-1.575 0-1.575 0-1.182-0.788-3.151-1.969-3.151 0 0 0 0 0 0-0.394 0-0.788 1.182-0.788 1.182l-26.782 14.572-26.782-13.785c-0.788-0.394-1.575 0-2.363 0.394s-0.788 1.182-0.788 1.969l5.12 29.538-21.662 20.874c-0.394 0.394-0.788 1.182-0.394 1.969s0.788 1.182 1.575 1.575l29.932 4.332 13.391 27.175c0.394 0.788 1.182 1.182 1.969 1.182s1.575-0.394 1.969-1.182l13.391-27.175 29.932-4.332c0.788 0 1.575-0.788 1.575-1.575 0-0.394 0-1.182-0.788-1.575zM452.923 451.938v-161.477h-118.154v433.231h118.154v-157.538h118.154v157.538h118.154v-433.231h-118.154v161.477h-118.154zM693.957 188.062l-21.662-20.874 5.12-29.538c0-0.394 0-1.575 0-1.575 0-1.182-0.788-3.151-1.969-3.151 0 0 0 0 0 0-0.394 0-0.788 1.182-0.788 1.182l-26.782 14.572-26.782-13.785c-0.788-0.394-1.575 0-2.363 0.394s-0.788 1.182-0.788 1.969l5.12 29.538-21.662 20.874c-0.394 0.394-0.788 1.182-0.394 1.969s0.788 1.182 1.575 1.575l29.932 4.332 13.391 27.175c0.394 0.788 1.182 1.182 1.969 1.182s1.575-0.394 1.969-1.182l13.391-27.175 29.932-4.332c0.788 0 1.575-0.788 1.575-1.575 0-0.394 0-1.182-0.788-1.575z" />
<glyph unicode="&#xe93d;" glyph-name="jewel" d="M87.828 644.923l-48.443-157.538 474.585-472.615 470.646 472.615-117.76 354.462h-706.954l-48.837-118.154h401.329l-78.769-78.769h-345.797z" />
<glyph unicode="&#xe93e;" glyph-name="pets" d="M176.837 394.437c53.957 0 98.068 60.258 98.068 134.695s-44.111 134.302-98.068 134.302c-54.351 0-98.068-60.258-98.068-134.695s43.717-134.302 98.068-134.302v0zM370.609 612.234c53.957 0 98.068 60.258 98.068 134.695s-44.111 134.302-98.068 134.302-98.068-60.258-98.068-134.695 44.111-134.302 98.068-134.302v0zM847.163 394.437c53.957 0 98.068 60.258 98.068 134.695s-43.717 134.695-98.068 134.695-98.068-60.258-98.068-134.695 44.111-134.695 98.068-134.695v0zM649.452 612.234c53.957 0 98.068 60.258 98.068 134.695s-44.111 134.302-98.068 134.302c-54.351 0-98.068-60.258-98.068-134.695s43.717-134.302 98.068-134.302v0zM511.606 55.729c181.169 0 327.68-123.274 327.68 57.895s-146.905 411.569-327.68 411.569-327.68-230.4-327.68-411.569 146.511-57.895 327.68-57.895v0z" />
<glyph unicode="&#xe93f;" glyph-name="pinpadconnect" d="M512 920.615c-261.12 0-472.615-211.495-472.615-472.615s211.495-472.615 472.615-472.615 472.615 211.495 472.615 472.615-211.495 472.615-472.615 472.615zM370.215 188.062h-118.154v118.154h118.154v-118.154zM370.215 388.923h-118.154v118.154h118.154v-118.154zM370.215 589.785h-118.154v118.154h118.154v-118.154zM571.077 188.062h-118.154v118.154h118.154v-118.154zM571.077 388.923h-118.154v118.154h118.154v-118.154zM571.077 589.785h-118.154v118.154h118.154v-118.154zM771.938 188.062h-118.154v118.154h118.154v-118.154zM771.938 388.923h-118.154v118.154h118.154v-118.154zM771.938 589.785h-118.154v118.154h118.154v-118.154z" />
<glyph unicode="&#xe940;" glyph-name="pinpaddisconnected" d="M899.938 717.785l-210.708-210.708h82.708v-118.154h-118.154v82.708l-165.415-165.415h82.708v-118.154h-118.154v82.708l-210.708-210.708c76.406-53.169 169.354-84.677 269.785-84.677 261.12 0 472.615 211.495 472.615 472.615 0 100.431-31.114 193.378-84.677 269.785zM771.938 188.062h-118.154v118.154h118.154v-118.154zM370.215 306.215l535.631 535.631v118.154l-124.062-124.062c-76.406 53.563-169.354 84.677-269.785 84.677-261.12 0-472.615-211.495-472.615-472.615 0-100.431 31.114-193.378 84.677-269.785l-84.677-84.677v-118.154l330.831 330.831zM452.923 707.938h118.154v-82.708l-35.446-35.446h-82.708v118.154zM252.062 707.938h118.154v-118.154h-118.154v118.154zM252.062 507.077h118.154v-82.708l-35.446-35.446h-82.708v118.154z" />
<glyph unicode="&#xe941;" glyph-name="point" d="M512.788 91.569l118.942-116.185v343.828c114.609 46.868 195.348 158.72 195.348 289.083 0 172.505-140.997 312.32-315.077 312.32s-315.077-139.815-315.077-312.32c0-130.757 81.132-243.003 196.529-289.477v-343.434l119.335 116.185zM515.151 494.474c-69.711 0-126.031 55.926-126.031 124.849s56.32 124.849 126.031 124.849c69.711 0 126.031-55.926 126.031-124.849s-56.32-124.849-126.031-124.849v0 0z" />
<glyph unicode="&#xe942;" glyph-name="promotion" d="M512 920.615c-261.12 0-472.615-211.495-472.615-472.615s211.495-472.615 472.615-472.615 472.615 211.495 472.615 472.615-211.495 472.615-472.615 472.615zM678.991 214.055l-163.84 99.643-163.84-99.643 43.323 187.865-144.542 126.425 190.622 16.148 74.437 177.231 74.437-177.231 190.622-16.148-144.542-126.425 43.323-187.865z" />
<glyph unicode="&#xe943;" glyph-name="restaurant" d="M669.932 408.615l-1.182-433.231h116.972l1.969 945.231c-175.655 0-198.105-157.538-198.105-157.538v-354.462zM452.923 920.615v-202.437l-51.2-33.871v236.308h-55.138v-202.437l-51.2-33.871v236.308h-59.077v-393.846h78.769v-551.385h118.154v551.385h78.769v393.846z" />
<glyph unicode="&#xe944;" glyph-name="retail" d="M357.612 881.231h-133.908c-4.332 0-8.271-1.182-11.815-3.151v3.151l-133.12-126.031 117.366-107.126v-609.674c-9.452-12.997 0.788-23.631 13.785-23.631h600.222c12.997 0 13.391 10.634 13.391 23.631v613.218l121.698 103.582-120.911 114.215c-2.363 3.938-5.908 7.483-9.846 9.452l-2.757 2.363v-1.182c-2.363 0.788-5.12 1.182-7.877 1.182h-137.452l-154.388-126.031-154.388 126.031zM492.308 589.785h256v-3.545l-74.831-75.225h-181.169v78.769z" />
<glyph unicode="&#xe945;" glyph-name="retirement" d="M984.615 960l-232.369-232.369h-515.938v-78.769l311.138-315.077v-319.015h-153.6v-78.769h393.846v78.769h-149.662v319.015l307.2 315.077v78.769h-81.526l120.911 120.911v111.458zM748.308 570.092h-315.077l-78.769 78.769h472.615l-78.769-78.769zM177.231 960c-98.068 0-177.231-79.163-177.231-177.231 0-91.372 68.923-166.203 157.538-176.049v195.742h195.742c-9.846 88.615-84.677 157.538-176.049 157.538z" />
<glyph unicode="&#xe946;" glyph-name="rewards" d="M118.154 684.308h352.098v-198.892h-352.098v198.892zM553.748 684.308h352.098v-198.892h-352.098v198.892zM551.385 684.308h352.098v-198.892h-352.098v198.892zM509.637 723.692l159.902 196.923 157.538-118.154-192.197-118.154h-249.305l-188.652 118.154 157.538 118.154 156.357-196.923zM157.538 408.615h315.077v-393.846h-315.077v393.846zM551.385 408.615h315.077v-393.846h-315.077v393.846z" />
<glyph unicode="&#xe947;" glyph-name="sales" d="M906.24 881.231h-372.972c-10.634 0-25.994-6.302-33.871-14.178l-319.409-319.409 333.588-333.588h-117.76l-274.511 274.511-50.806-50.806c-14.966-14.966-15.36-40.172 0-55.532l376.123-376.123c15.36-15.36 40.172-15.36 55.532 0l428.898 428.898c8.271 8.271 14.178 22.843 14.178 33.871v373.366c0 21.662-17.329 38.991-38.991 38.991zM709.711 567.335c-43.323 0-78.375 35.052-78.375 78.375s35.052 78.375 78.375 78.375c43.323 0 78.375-35.052 78.375-78.375s-35.052-78.375-78.375-78.375z" />
<glyph unicode="&#xe948;" glyph-name="services" d="M944.837 258.954c-8.271 228.431-198.498 410.782-432.049 410.782s-423.778-182.351-432.049-410.782h-1.969v-86.646h866.462l-0.394 86.646zM758.548 381.046c-12.997 20.086-28.751 38.991-46.474 55.926-29.538 28.357-64.197 50.412-101.612 64.985v62.622c52.775-17.329 101.612-45.686 142.572-85.071 30.326-29.145 55.138-62.228 73.649-98.855h-68.135zM512 723.692c43.323 0 78.769 35.446 78.769 78.769s-35.446 78.769-78.769 78.769-78.769-35.446-78.769-78.769c0-43.323 35.446-78.769 78.769-78.769v0zM0 93.538h1024v-78.769h-1024v78.769z" />
<glyph unicode="&#xe949;" glyph-name="shop" d="M1005.489 605.538l-118.154 200.862h-708.923l-157.538-200.862zM827.077 530.708v-315.077h-630.154v315.077h-78.769v-448.985c0-12.997 11.815-23.631 24.812-23.631h740.431c12.997 0 22.449 10.634 22.449 23.631v448.985h-78.769zM276.874 373.169h393.846l-65.378-78.769h-328.468z" />
<glyph unicode="&#xe94a;" glyph-name="shopping" d="M748.308 723.692v0c0 130.363-105.945 236.308-236.308 236.308s-236.308-105.551-236.308-235.914v-0.394h-157.538v-669.538c0-21.662 17.329-39.385 38.991-39.385h709.711c21.268 0 38.991 17.723 38.991 39.385v669.538h-157.538zM354.462 448l-78.769-78.769v196.923h78.769v-118.154zM354.462 723.692c0 87.040 70.892 157.538 157.538 157.538 87.040 0 157.538-70.498 157.538-157.538h-315.077zM748.308 448l-78.769-78.769v196.923h78.769v-118.154z" />
<glyph unicode="&#xe94b;" glyph-name="supermarket" d="M960.591 605.538h-208.345c-2.363 185.108-99.643 275.692-239.852 275.692-135.877 0-233.945-90.585-236.308-275.692h-212.677c-15.36 0-25.994-16.148-23.631-31.114l76.406-531.298c1.969-14.966 16.148-27.963 31.114-27.963h727.434c14.966 0 29.145 11.028 31.114 25.994l78.375 534.055c1.969 14.572-8.665 30.326-23.631 30.326zM354.462 172.308l-78.769 50.806v185.502h78.769v-236.308zM512 807.975c90.191 0 155.569-52.775 157.538-202.437h-311.532c1.969 149.662 68.135 202.437 153.994 202.437zM551.385 172.308l-78.769 50.806v185.502h78.769v-236.308zM748.308 172.308l-78.769 50.806v185.502h78.769v-236.308z" />
<glyph unicode="&#xe94c;" glyph-name="toys" d="M984.615 741.415v5.908h-81.526c-11.815 98.462-95.311 173.292-196.529 173.292-109.489 0-198.105-88.615-198.105-197.711 0-55.926 23.237-106.338 60.652-142.178-140.209-129.575-340.677-177.625-525.785-122.486-22.449-167.778 57.108-339.889 213.858-428.111 205.982-115.397 466.708-42.535 582.498 162.658 71.286 126.425 70.892 274.117 12.209 395.422 14.966 16.148 27.175 34.658 36.234 55.138l96.492 98.068zM716.406 797.735c22.449 0 40.96-18.511 40.96-40.96s-18.511-40.96-40.96-40.96c-22.449 0-40.96 18.511-40.96 40.96-0.394 22.843 18.117 40.96 40.96 40.96zM578.954 251.077h-263.877l78.769 78.769h185.108v-78.769z" />
<glyph unicode="&#xe94d;" glyph-name="travel" d="M394.24 54.154c0 0 0 0 0 0h354.068c0 0 0 0 0 0zM960.985 739.446h-152.025l0.394 119.335c0 12.603-12.997 22.449-25.206 22.449h-345.009c-12.209 0-22.843-7.877-23.237-19.692h-2.363v-122.092h-153.6c-12.997 0-23.631-10.634-23.631-23.631v-480.492c0-12.997 10.634-23.631 23.631-23.631h701.046c12.997 0 23.631 10.634 23.631 23.631v480.492c0 12.997-10.634 23.631-23.631 23.631zM496.246 802.462h236.308v-63.015h-236.308v63.015zM553.354 542.523h-198.892v78.769h277.662l-78.769-78.769zM1024 132.923h-866.462v715.225c0 18.511-13.785 33.083-32.295 33.083h-125.243v-78.769h78.769v-714.043c0-18.511 15.754-34.265 34.265-34.265h123.274c0-43.323 35.446-78.769 78.769-78.769s78.769 35.446 78.769 78.769c0 0 0 0 0 0h354.462c0-43.323 35.446-78.769 78.769-78.769s78.769 35.446 78.769 78.769h118.154v78.769z" />
<glyph unicode="&#xe94e;" glyph-name="weather" d="M654.572 880.443l-40.566 40.172h-1.969v-137.452h42.535v97.28zM417.477 810.732h-57.502l-1.575-1.575 98.068-97.28 30.326 29.932-69.317 68.923zM983.434 505.895l40.566 40.172v1.969h-138.634v-42.142h98.068zM889.698 776.468v56.714l-1.575 1.575-98.068-97.28 30.326-29.932 69.317 68.923zM842.437 531.889c0 114.215-93.735 206.769-209.132 206.769-83.889 0-155.963-48.443-189.44-118.942-0.788-1.575-1.969-5.12-2.757-7.089 73.255-27.175 137.846-80.738 164.234-146.905 15.754 3.938 31.508 3.545 46.868 2.757 57.502-3.938 106.338-27.963 142.572-68.529 29.538 35.84 47.655 81.92 47.655 131.938v0zM632.123 14.769c109.095 0 197.711 89.403 197.711 200.074 0 110.277-88.615 200.074-197.711 200.074-16.935 0-33.477-2.363-49.231-6.695-42.142 104.369-142.966 178.018-261.12 178.018-155.963 0-282.388-128-282.388-285.538 0-157.932 126.425-285.538 282.388-285.538h310.351v-0.394z" />
<glyph unicode="&#xe94f;" glyph-name="wellness" d="M512 920.615c-261.12 0-472.615-211.495-472.615-472.615s211.495-472.615 472.615-472.615 472.615 211.495 472.615 472.615-211.495 472.615-472.615 472.615zM781.391 487.385c0-153.6-269.785-308.382-269.785-308.382s-269.785 154.782-269.785 308.382c0 0 0.394 0 1.182 0-0.788 3.938-1.182 12.603-1.182 18.905 0 74.437 60.652 134.695 135.089 134.695 68.135 0 124.062-50.412 133.514-115.791 0.394 0 0.788 0 1.182 0s0.788 0 1.182 0c9.452 65.378 65.378 115.791 133.514 115.791 74.437 0 134.695-60.258 134.695-134.695 0-6.695-0.394-14.966-1.182-18.905 1.182 0 1.575 0 1.575 0z" />
<glyph unicode="&#xe950;" glyph-name="alarm" d="M259.151 482.265l87.434 16.935 220.554-222.129-24.025-80.738-283.963 285.932zM672.689 233.354l159.902 161.083c50.806 51.2 79.163 118.942 79.951 190.228 0.394 55.532-15.754 108.702-46.868 153.206l79.557 79.951-63.015 63.409-78.375-79.163c-45.686 33.477-100.037 51.2-157.145 50.018-70.105-1.182-136.665-29.932-187.865-81.526-11.422-11.422-133.908-134.695-159.902-161.083l-207.163-55.532c-14.178-3.938-16.935-14.966-6.695-25.6l155.963-155.175c-0.788-0.788-1.575-1.575-2.363-2.363-52.775-52.775-52.775-139.028 0-192.197 52.775-52.775 138.24-52.775 191.015 0 0.788 0.788 1.575 1.575 2.363 2.363l157.932-161.083c10.24-10.24 21.662-7.483 25.6 6.695l57.108 206.769z" />
<glyph unicode="&#xe951;" glyph-name="alert" d="M512 211.692c32.689 0 59.077-26.388 59.077-59.077s-26.388-59.077-59.077-59.077c-32.689 0-59.077 26.388-59.077 59.077s26.388 59.077 59.077 59.077zM551.385 290.462h-78.769v315.077l78.769-78.769v-236.308zM940.505 58.486l-406.449 804.628c-12.209 24.025-31.902 24.025-44.111 0l-406.449-804.628c-12.209-24.025 0.394-43.717 27.963-43.717h801.083c27.569 0 40.172 19.692 27.963 43.717z" />
<glyph unicode="&#xe952;" glyph-name="appstore" d="M539.963 673.28c15.754 0 41.354 6.302 76.8 18.511s66.56 18.511 92.554 18.511c42.929 0 81.132-11.422 114.609-34.658 18.905-13.391 37.415-31.114 55.926-53.957-27.963-23.631-48.443-44.898-61.44-63.409-23.237-33.477-35.052-70.498-35.052-111.065 0-44.505 12.209-84.283 37.022-119.729s53.169-58.289 84.677-67.742c-13.391-42.929-35.446-87.828-66.166-134.695-46.474-70.105-92.554-105.157-138.24-105.157-18.117 0-43.323 5.908-75.225 17.329s-59.077 17.329-80.738 17.329c-22.055 0-47.655-5.908-76.8-18.117s-52.775-18.117-70.892-18.117c-54.745 0-108.702 46.474-161.477 139.422-51.594 91.372-77.982 181.563-77.982 269.785 0 81.92 20.086 148.874 60.652 200.468 40.172 51.594 91.372 77.588 152.812 77.588 25.994 0 57.895-5.514 94.917-16.148 37.022-11.028 61.834-16.148 74.043-16.148zM703.803 889.502c0-22.449-5.12-46.868-15.754-73.255s-27.175-51.2-49.625-73.649c-19.692-19.298-38.991-32.295-58.289-38.597-12.209-3.938-30.72-6.695-55.532-9.058 0.788 53.169 14.572 98.855 41.748 137.846 27.175 38.597 71.68 65.378 134.302 79.557 1.575-4.726 2.363-8.665 2.757-12.209 0-3.545 0.394-7.089 0.394-10.634z" />
<glyph unicode="&#xe953;" glyph-name="audio" d="M523.422 874.929l-283.569-230.006h-157.538c-22.055 0-39.385-17.723-39.385-39.385v-315.077c0-21.268 17.723-39.385 39.385-39.385h157.538l283.569-229.612c17.329-12.997 31.508-6.302 31.508 16.148v821.169c0 22.055-14.572 28.751-31.508 16.148zM718.375 610.265l-83.889-83.495c46.080-46.080 46.080-121.305 0-167.385l83.889-83.495c92.554 92.16 92.554 241.822 0 334.375zM885.76 777.649l-83.889-83.495c138.634-138.634 138.634-363.52 0-502.154l83.889-83.495c185.108 184.32 185.108 484.037 0 669.145z" />
<glyph unicode="&#xe954;" glyph-name="BBVAcontigo" d="M493.883 509.834l35.052 53.169c9.058 13.391 10.634 20.874 10.634 30.326 0 25.994-22.843 47.262-48.837 47.262h-53.563v-315.077h29.932c50.018 0 88.222 28.357 88.222 92.554 0 53.563-24.418 82.708-61.44 91.766zM949.169 837.908h-866.462c-21.662 0-39.385-16.148-39.385-37.809v-827.471l157.538 156.357h748.308c21.662 0 39.385 18.905 39.385 40.566v630.548c0 21.662-17.723 37.809-39.385 37.809zM531.692 286.523h-173.292v393.846h179.594c84.283 0 113.428-64.591 70.892-125.243l-20.086-28.751c140.997-70.105 94.917-239.852-57.108-239.852z" />
<glyph unicode="&#xe955;" glyph-name="bluetooth" d="M738.068 634.683l-326.105 285.145v-378.486l-185.895 160.689v-112.64l169.354-145.329-169.354-149.662v-102.4l185.895 161.083v-378.486l326.105 285.145-217.009 187.471 217.009 187.471zM496.246 158.917v198.498l114.609-98.462-114.609-100.037zM611.249 634.683l-115.003-101.218v201.649l115.003-100.431z" />
<glyph unicode="&#xe956;" glyph-name="camera" d="M945.231 724.086h-196.923v118.154h-354.462l-118.154-118.154h-196.923c-21.662 0-39.385-17.723-39.385-39.385v-590.769c0-21.662 17.723-39.385 39.385-39.385h866.462c21.662 0 39.385 17.723 39.385 39.385v590.769c0 21.268-17.723 39.385-39.385 39.385zM157.538 527.163v78.769h236.308l-78.769-78.769h-157.538zM649.846 133.317c-141.391 0-256 114.609-256 256s114.609 256 256 256 256-114.609 256-256c0-141.391-114.609-256-256-256zM649.846 570.486c-10.634 0-21.268-1.182-31.508-2.757v-81.132c9.846 3.151 20.48 5.12 31.508 5.12 54.351 0 98.462-44.111 98.462-98.462 0-6.695-0.788-13.391-1.969-19.692h79.557c0.788 6.302 1.182 12.997 1.182 19.692 0 97.674-79.163 177.231-177.231 177.231z" />
<glyph unicode="&#xe957;" glyph-name="clock" d="M512 920.615c-261.12 0-472.615-211.495-472.615-472.615s211.495-472.615 472.615-472.615c261.12 0 472.615 211.495 472.615 472.615s-211.495 472.615-472.615 472.615zM669.538 408.615h-196.923v354.462l78.769-78.769v-196.923h196.923l-78.769-78.769z" />
<glyph unicode="&#xe958;" glyph-name="communication" d="M827.077 272.345v573.44c0 19.692-19.298 35.446-38.991 35.446h-752.64c-19.692 0-35.446-15.754-35.446-35.446v-752.246l147.298 149.662h640.788c19.692 0 38.991 9.452 38.991 29.145zM472.615 487.385h-315.077v78.769h393.846l-78.769-78.769zM630.154 644.923h-472.615v78.769h551.385l-78.769-78.769zM999.582 526.769h-93.735v-258.757c0-50.412-41.354-95.705-98.068-95.705h-413.932v-85.858c0-13.785 12.209-32.295 26.388-32.295h487.188l116.578-118.154v565.169c0 13.785-10.634 25.6-24.418 25.6z" />
<glyph unicode="&#xe959;" glyph-name="email" d="M962.954 802.462h-901.908c-12.209 0-21.662-9.846-21.662-21.662v-665.6c0-11.815 9.846-21.662 21.662-21.662h901.514c12.209 0 21.662 9.846 21.662 21.662v665.6c0.394 11.815-9.452 21.662-21.268 21.662zM511.606 369.231l-393.452 236.702v94.129l393.846-237.489 393.846 237.489v-94.129l-393.846-236.702z" />
<glyph unicode="&#xe95a;" glyph-name="facebook2" d="M666.782 737.871c-63.803 0-75.618-30.72-75.618-74.831v-98.068h152.025l-20.086-153.994h-131.545v-394.634h-158.72v394.24h-132.332v153.994h132.332v113.428c0 131.545 80.345 203.225 197.317 203.225 55.926 0 104.369-4.332 118.154-6.302v-137.058h-81.526z" />
<glyph unicode="&#xe95b;" glyph-name="favorite" d="M509.637 664.615c-16.542 122.486-115.003 216.615-233.945 216.615-130.363 0-236.308-113.034-236.308-252.849 0-12.209 0.788-24.418 2.363-36.234-1.575 0-2.363 0-2.363 0 0-288.689 472.615-577.378 472.615-577.378s472.615 288.689 472.615 577.772c0 0-0.788 0-2.363 0 1.575 11.815 2.363 24.025 2.363 36.234 0 139.422-105.945 252.849-236.308 252.849-118.942 0-217.403-94.129-233.945-216.615-0.788 0-1.575 0-2.363 0-0.788-0.394-1.575-0.394-2.363-0.394z" />
<glyph unicode="&#xe95c;" glyph-name="googleplus2" d="M335.557 527.163v-125.243h168.96c-25.206-66.56-89.797-113.822-165.022-113.822-97.674 0-176.443 79.163-176.443 176.443s78.769 176.443 176.049 176.443c43.323 0 83.102-15.754 113.822-41.748l88.222 86.646c-53.169 48.837-124.455 78.769-202.437 78.769-165.022-0.394-299.323-134.695-299.323-300.111 0-165.809 134.302-299.717 299.717-299.717s299.717 134.302 299.717 299.717c0 21.662-2.363 42.535-6.695 62.622h-296.566zM880.246 517.711v104.369h-76.012v-104.369h-104.369v-76.012h104.369v-104.369h76.012v104.369h104.369v76.012h-104.369z" />
<glyph unicode="&#xe95d;" glyph-name="gooplay2" d="M584.468 400.345l-302.474-302.474 395.422 209.526zM161.477 823.335c-2.363-4.332-3.545-9.452-3.545-14.966v-719.951c0-22.449 20.874-37.415 40.96-33.083l365.489 365.489-402.905 402.511zM584.468 440.911l116.972 116.972-493.095 279.631c-7.877 4.332-16.542 5.12-24.418 3.545l400.542-400.148zM864.098 464.935l-137.058 77.982-122.092-122.486 99.249-99.249 159.114 84.283c23.631 12.997 24.025 46.474 0.788 59.471z" />
<glyph unicode="&#xe95e;" glyph-name="insurancehealth" d="M783.67 64v113.815h112.33v113.782h-112.33v113.815h-112.33v-113.815h-112.297v-113.782h112.297v-113.815h112.33zM471.749 686.847c40.717 0 78.638-12.279 110.233-33.429l102.509 103.864c-58.496 46.788-132.406 74.719-212.741 74.719s-154.213-27.931-212.741-74.719l102.509-103.864c31.628 21.151 69.516 33.429 110.233 33.429zM271.226 483.673c0 41.256 12.152 79.644 32.993 111.69l-102.509 103.898c-46.177-59.336-73.71-134.19-73.71-215.588s27.533-156.251 73.71-215.554l102.509 103.864c-20.841 32.046-32.993 70.435-32.993 111.69zM509.104 177.815v106.63c-12.152-2.361-24.537-3.98-37.355-3.98-40.717 0-78.604 12.313-110.233 33.463l-102.509-103.864c58.529-46.788 132.406-74.719 212.741-74.719 12.651 0 25.070 0.945 37.355 2.294v40.176zM639.312 595.363l102.509 103.898c46.144-59.336 73.71-134.19 73.71-215.588 0-9.31-0.466-18.519-1.165-27.661h-144.092c1.199 9.074 2.031 18.25 2.031 27.661 0 41.256-12.152 79.644-32.993 111.69z" />
<glyph unicode="&#xe95f;" glyph-name="hashtag" d="M984.615 566.154v118.154h-132.332l53.563 196.923h-118.154l-53.563-196.923h-275.692l53.563 196.923h-118.154l-53.563-196.923h-143.36l-118.154-118.154h229.218l-64.591-236.308h-164.628v-118.154h132.332l-53.563-196.923h118.154l53.563 196.923h275.692l-53.563-196.923h118.154l53.563 196.923h143.36l118.154 118.154h-229.218l64.591 236.308h164.628zM637.243 329.846h-275.692l64.591 236.308h275.692l-64.591-236.308z" />
<glyph unicode="&#xe960;" glyph-name="help" d="M512 920.615c-261.12 0-472.615-211.495-472.615-472.615s211.495-472.615 472.615-472.615 472.615 211.495 472.615 472.615-211.495 472.615-472.615 472.615zM512 172.308c-32.689 0-59.077 26.388-59.077 59.077s26.388 59.077 59.077 59.077 59.077-26.388 59.077-59.077-26.388-59.077-59.077-59.077zM600.615 449.575c-53.169-31.114-52.382-44.111-52.382-109.489h-77.194c-1.575 17.723-2.363 31.114-2.363 47.655 0 50.018 27.569 79.163 61.834 100.431 32.295 20.48 46.868 35.052 46.868 67.348 0 26.388-19.692 44.898-54.745 44.898-38.597 0-77.588-27.175-100.431-57.502l-57.108 59.471c35.446 44.898 89.797 81.92 166.991 81.92 88.615 0 137.452-50.806 137.452-120.517 0-61.44-31.114-90.978-68.923-114.215z" />
<glyph unicode="&#xe961;" glyph-name="info" d="M512 605.538c-32.689 0-59.077 26.388-59.077 59.077s26.388 59.077 59.077 59.077c32.689 0 59.077-26.388 59.077-59.077s-26.388-59.077-59.077-59.077zM472.615 526.769h78.769v-354.462l-78.769 78.769v275.692zM512-24.615c261.12 0 472.615 211.495 472.615 472.615s-211.495 472.615-472.615 472.615-472.615-211.495-472.615-472.615 211.495-472.615 472.615-472.615z" />
<glyph unicode="&#xe962;" glyph-name="instagram2" d="M512 650.437c-111.852 0-202.437-90.585-202.437-202.437s90.585-202.437 202.437-202.437c111.852 0 202.437 90.585 202.437 202.437s-90.585 202.437-202.437 202.437zM512 316.849c-72.468 0-131.151 58.683-131.151 131.151s58.683 131.151 131.151 131.151c72.468 0 131.151-58.683 131.151-131.151s-58.683-131.151-131.151-131.151zM769.575 658.314c0-25.994-21.268-47.262-47.262-47.262s-47.262 21.268-47.262 47.262c0 25.994 21.268 47.262 47.262 47.262s47.262-21.268 47.262-47.262zM512 770.954c105.157 0 117.76-0.394 159.114-2.363 38.203-1.575 59.077-8.271 73.255-13.391 18.511-7.089 31.508-15.754 45.292-29.538s22.449-26.782 29.538-45.292c5.514-13.785 11.815-34.658 13.391-73.255 1.969-41.354 2.363-53.957 2.363-159.114s-0.394-117.76-2.363-159.114c-1.575-38.597-8.271-59.077-13.391-73.255-7.089-18.511-15.754-31.508-29.538-45.292s-26.782-22.449-45.292-29.538c-13.785-5.514-34.658-11.815-73.255-13.391-41.354-1.969-53.957-2.363-159.114-2.363s-117.76 0.394-159.114 2.363c-38.203 1.575-59.077 8.271-73.255 13.391-18.511 7.089-31.508 15.754-45.292 29.538s-22.055 27.175-29.538 45.292c-5.514 13.785-11.815 34.658-13.391 73.255-1.969 41.354-2.363 53.957-2.363 159.114s0.394 117.76 2.363 159.114c1.575 38.203 8.271 59.077 13.391 73.255 7.089 18.511 15.754 31.508 29.538 45.292s27.175 22.055 45.292 29.538c13.785 5.514 34.658 11.815 73.255 13.391 41.354 1.969 53.957 2.363 159.114 2.363zM512 841.846c-107.126 0-120.517-0.394-162.265-2.363s-70.498-8.665-95.705-18.117c-25.994-10.24-48.049-23.631-69.711-45.292-22.055-22.055-35.446-43.717-45.292-69.711-9.846-25.206-16.542-53.563-18.117-95.705-2.363-42.142-2.757-55.532-2.757-162.658s0.394-120.517 2.363-162.265c1.969-41.748 8.665-70.498 18.117-95.705 10.24-25.994 23.631-48.049 45.292-69.711 22.055-22.055 43.717-35.446 69.711-45.292 25.206-9.846 53.563-16.542 95.705-18.117 42.142-1.969 55.532-2.363 162.265-2.363 107.126 0 120.517 0.394 162.265 2.363s70.498 8.665 95.705 18.117c25.994 10.24 48.049 23.631 69.711 45.292 22.055 22.055 35.446 43.717 45.292 69.711 9.846 25.206 16.542 53.563 18.117 95.705 1.969 42.142 2.363 55.532 2.363 162.265 0 107.126-0.394 120.517-2.363 162.265s-8.665 70.498-18.117 95.705c-10.24 25.994-23.631 48.049-45.292 69.711-22.055 22.055-43.717 35.446-69.711 45.292-25.206 9.846-53.563 16.542-95.705 18.117-41.354 2.363-54.745 2.757-161.871 2.757z" />
<glyph unicode="&#xe963;" glyph-name="language" d="M669.538 802.462l-78.769 78.769h-472.615v-866.462h118.154v350.523h278.449l76.012-78.769h315.077v515.938h-236.308zM236.308 448v315.077l315.077-315.077h-315.077z" />
<glyph unicode="&#xe964;" glyph-name="linkedin2" d="M125.243 97.871h170.142v493.883h-170.142v-493.883zM702.228 603.963c-70.892 0-114.215-25.994-159.114-83.495v71.286h-166.203v-493.883h165.809v265.452c0 55.926 31.114 110.671 95.311 110.671 63.803 0 85.858-54.745 85.858-109.489v-267.028h170.142v277.662c0 193.378-121.305 228.825-191.803 228.825zM211.102 831.212c-52.775 0-95.311-38.597-95.311-86.252s42.535-86.252 95.311-86.252c52.775 0 95.311 38.597 95.311 86.252s-42.929 86.252-95.311 86.252z" />
<glyph unicode="&#xe965;" glyph-name="microphone" d="M472.222 448h-154.388c18.511-89.797 98.462-157.538 194.166-157.538 109.095 0 198.105 88.222 198.105 197.317v274.905c0 109.095-88.615 197.317-198.105 197.317-109.095 0-198.105-88.222-198.105-197.317v-78.375h237.883l-79.163-78.769h-158.72v-78.769h237.883l-79.557-78.769zM866.462 448h-79.951c-19.298-133.514-135.089-236.308-274.511-236.308-139.815 0-255.212 102.794-274.511 236.308h-79.951c18.511-164.234 149.662-294.597 314.683-312.714v-81.132h-198.105v-78.769h475.766v78.769h-198.105v81.132c165.022 18.117 296.172 148.48 314.683 312.714z" />
<glyph unicode="&#xe966;" glyph-name="nfcconnect" d="M660.874 920.615l-95.311-72.862c109.883-93.342 183.138-237.883 183.138-399.754s-72.862-306.412-183.138-399.754l95.311-72.862c124.849 115.003 205.588 283.963 205.588 472.615s-80.738 357.612-205.588 472.615zM459.225 767.015l-100.431-76.8c70.105-57.502 114.609-144.542 114.609-242.215s-44.505-184.714-114.609-242.215l100.431-76.8c79.951 78.769 131.938 192.591 131.938 319.015s-51.988 240.246-131.938 319.015zM242.215 601.206l-84.677-64.197c24.812-21.662 40.566-53.169 40.566-89.009s-15.754-67.348-40.566-89.009l84.677-64.591c45.292 35.84 74.043 91.372 74.043 153.206s-29.145 117.76-74.043 153.6z" />
<glyph unicode="&#xe967;" glyph-name="nfcdisconnect" d="M387.151 165.612l61.834-47.262c66.166 61.44 115.003 146.117 133.514 242.609l-195.348-195.348zM145.329 350.326l84.283-64.591c51.594 35.446 85.071 94.917 85.071 162.265s-33.871 126.818-85.071 162.265l-84.283-64.591c31.114-21.268 51.594-57.108 51.594-97.674s-20.48-76.406-51.594-97.674zM743.188 521.649c3.151-24.025 5.12-48.837 5.12-73.649 0-168.172-77.982-317.046-193.772-410.388l96.098-73.255c130.363 115.397 215.828 289.083 215.828 483.643 0 60.258-8.271 118.548-23.237 173.686l-100.037-100.037zM771.938 786.708c-33.477 54.745-74.437 103.975-121.305 145.329l-96.098-73.255c52.775-42.929 97.28-96.886 130.757-158.72l-115.397-115.397c-23.631 75.618-66.56 142.178-120.911 192.985l-102.006-77.982c66.954-50.412 113.034-127.212 123.274-214.646l-312.714-312.714v-118.154l748.308 748.308v118.154l-133.908-133.908z" />
<glyph unicode="&#xe968;" glyph-name="pinterest2" d="M447.409 282.191c-23.631-124.849-52.775-244.185-139.028-306.806-26.388 188.652 38.991 330.043 69.317 480.492-51.988 87.434 6.302 263.089 115.791 219.766 134.695-53.169-116.578-324.923 51.988-358.794 176.443-35.446 248.123 305.625 139.028 416.689-157.932 160.295-459.618 3.545-422.597-225.674 9.058-55.926 66.954-73.255 23.237-150.449-101.218 22.449-131.151 102.006-127.212 208.345 6.302 173.686 156.357 295.778 306.806 312.32 190.228 21.268 369.034-69.711 393.846-248.911 27.963-202.043-85.858-421.022-289.477-405.268-55.532 4.726-78.375 31.902-121.698 58.289z" />
<glyph unicode="&#xe969;" glyph-name="play" d="M512 920.615c-260.726 0-472.615-211.889-472.615-472.615s211.889-472.615 472.615-472.615 472.615 211.889 472.615 472.615-211.889 472.615-472.615 472.615zM421.415 235.323v425.354l283.569-212.677-283.569-212.677z" />
<glyph unicode="&#xe96a;" glyph-name="quotemark" d="M433.231 802.462h-196.923l-196.923-315.077v-433.231h433.231v433.231h-236.308zM748.308 487.385l196.923 315.077h-196.923l-196.923-315.077v-433.231h433.231v433.231z" />
<glyph unicode="&#xe96b;" glyph-name="reademail" d="M543.902 910.769c-17.723 13.391-46.080 12.997-63.409 0l-441.108-344.615v-550.991c0-22.055 17.723-39.778 39.385-39.778h866.462c21.662 0 39.385 17.723 39.385 39.778v550.991l-440.714 344.615zM542.72 197.12c-16.935-13.391-44.898-13.785-61.834 0l-362.732 290.265c0 21.662 17.329 39.385 38.991 39.385h709.711c21.268 0 38.991-17.723 38.991-39.385l-363.126-290.265z" />
<glyph unicode="&#xe96c;" glyph-name="send" d="M967.286 474.388l-836.529 365.095c-10.634 4.726-23.237 2.363-31.902-5.908l-12.209-12.209c-8.271-8.271-10.634-21.268-5.908-31.902l146.511-329.649c3.151-7.483 3.151-16.148 0-23.237l-146.117-329.649c-4.726-11.028-2.363-23.631 5.908-31.902l12.209-12.209c8.271-8.271 20.874-10.634 31.902-5.908l836.529 365.095c22.843 9.452 22.843 42.535-0.394 52.382zM236.308 211.692l118.154 240.246h433.231l-551.385-240.246z" />
<glyph unicode="&#xe96d;" glyph-name="share" d="M425.748 400.345l197.711-131.938c28.751 37.415 74.043 61.44 124.849 61.44 87.040 0 157.538-70.498 157.538-157.538s-70.498-157.538-157.538-157.538-157.538 70.498-157.538 157.538c0 4.332 0 8.665 0.394 12.603l-213.858 142.572c-27.569-23.237-63.015-37.415-101.612-37.415-87.040 0-157.538 70.498-157.538 157.538s70.498 157.538 157.538 157.538c38.597 0 74.437-14.178 101.612-37.415l213.858 142.572c-0.394 4.332-0.394 8.665-0.394 12.603 0 87.040 70.498 157.538 157.538 157.538s157.538-70.498 157.538-157.538-70.498-157.538-157.538-157.538c-50.806 0-95.705 24.025-124.849 61.44l-197.711-131.938c4.726-14.966 7.483-31.114 7.483-47.655 0-15.754-2.757-31.902-7.483-46.868z" />
<glyph unicode="&#xe96e;" glyph-name="support" d="M945.231 841.846h-866.462c-21.662 0-39.385-17.723-39.385-39.385v-827.077l157.538 157.538h748.308c21.662 0 39.385 17.723 39.385 39.385v630.154c0 21.662-17.723 39.385-39.385 39.385zM512 448h-315.077v78.769h393.846l-78.769-78.769zM669.538 605.538h-472.615v78.769h551.385l-78.769-78.769z" />
<glyph unicode="&#xe96f;" glyph-name="twitter2" d="M838.498 600.025c0-207.557-170.142-446.228-481.28-446.228-95.705 0-184.714 25.6-259.545 70.498 13.785-1.575 26.782-1.969 40.96-1.969 79.163 0 151.631 24.812 209.92 66.954-74.437 1.575-136.665 46.474-157.932 108.702 10.634-1.575 20.874-2.363 31.902-2.363 15.36 0 30.326 1.969 44.505 5.514-77.588 14.572-135.483 77.588-135.483 153.994v1.969c22.449-11.815 48.837-18.905 76.406-20.086-45.292 28.357-75.225 76.406-75.225 130.757 0 29.145 8.271 55.926 22.843 79.163 83.102-95.311 208.345-157.538 348.554-164.234-2.757 11.815-4.332 23.631-4.332 35.84 0 86.646 75.225 156.751 168.96 156.751 48.837 0 92.554-18.905 123.668-49.625 38.203 6.695 74.831 20.086 107.126 37.809-12.603-36.628-39.385-66.954-74.437-86.646 33.871 3.545 66.954 12.209 97.28 24.418-23.237-31.114-51.988-58.683-84.677-81.132 0.788-6.302 0.788-13.391 0.788-20.086z" />
<glyph unicode="&#xe970;" glyph-name="videochat" d="M945.231 841.846h-866.462c-21.662 0-39.385-17.329-39.385-38.991v-827.471l157.538 157.538h748.308c21.662 0 39.385 17.329 39.385 38.991v630.942c0 21.662-17.723 38.991-39.385 38.991zM787.692 369.231l-118.154 78.769v-78.769c0-21.662-18.117-39.385-39.385-39.385h-315.077c-21.662 0-39.385 17.723-39.385 39.385v236.308c0 21.662 18.117 39.385 39.385 39.385h315.077c21.662 0 39.385-17.723 39.385-39.385v-78.769l118.154 78.769v-236.308z" />
<glyph unicode="&#xe971;" glyph-name="videoplayline" d="M512 920.615c-260.726 0-472.615-211.889-472.615-472.615s211.889-472.615 472.615-472.615c260.726 0 472.615 211.889 472.615 472.615s-211.495 472.615-472.615 472.615zM512 54.154c-217.403 0-393.846 176.443-393.846 393.846s176.443 393.846 393.846 393.846c217.403 0 393.846-176.443 393.846-393.846s-176.443-393.846-393.846-393.846zM429.292 235.323v425.354l283.569-212.677z" />
<glyph unicode="&#xe972;" glyph-name="youtube2" d="M975.163 618.535c0 0-9.058 65.772-37.415 94.523-35.84 37.809-76.406 38.203-94.523 40.172-132.332 9.452-330.831 9.452-330.831 9.452h-0.394c0 0-198.498 0-330.831-9.452-18.511-2.363-58.683-2.363-94.523-40.172-28.357-28.751-37.415-94.523-37.415-94.523s-9.846-76.8-9.846-153.994v-72.074c0-77.194 9.452-153.994 9.452-153.994s9.058-65.772 37.415-94.523c35.84-37.809 83.102-36.628 104.369-40.566 75.618-7.483 321.378-9.452 321.378-9.452s198.498 0.394 330.831 9.846c18.511 2.363 58.683 2.363 94.523 40.172 28.357 28.751 37.415 94.523 37.415 94.523s9.452 77.194 9.452 153.994v72.074c0.394 77.194-9.058 153.994-9.058 153.994zM414.326 304.64v267.422l255.212-134.302-255.212-133.12z" />
<glyph unicode="&#xe973;" glyph-name="agenda" d="M827.077 802.462c0-228.431 0-519.089 0-749.095-3.938 0-352.886 0-560.443 0-67.348 0-65.772 79.163 0.788 79.163h0.394c0 0 476.554 0 480.492 0 0 232.369 0 779.815 0 779.815h0.788v7.877h-532.086c-53.957 0.394-98.855-46.080-98.855-100.825v-56.32h78.769v-78.769h-78.769v-33.477c0-1.575 0.394-1.969 0.394-3.545l0.394-81.132h77.982v-78.769h-77.982v-118.154h77.982v-78.769h-77.982v-207.951c0-51.2 54.745-92.948 103.975-104.763 9.058-2.363 18.905-3.151 28.357-3.151 226.855 0 427.323-0.394 654.178-0.394 0 247.335 0 579.742 0 827.865-15.36 0.394-58.683 0.394-78.375 0.394zM319.015 448h311.138l-72.862-78.769h-238.277v78.769z" />
<glyph unicode="&#xe974;" glyph-name="calculator" d="M866.462 857.6c0 12.997-10.634 23.631-23.631 23.631h-661.662c-12.997 0-23.631-10.634-23.631-23.631v-819.2c0-12.997 10.634-23.631 23.631-23.631h661.662c12.997 0 23.631 10.634 23.631 23.631v819.2zM271.754 763.077h472.615l-78.769-98.462h-393.846v98.462zM374.154 109.292h-98.462v98.462h98.462v-98.462zM374.154 286.523h-98.462v98.462h98.462v-98.462zM374.154 463.754h-98.462v98.462h98.462v-98.462zM559.262 109.292h-98.462v98.462h98.462v-98.462zM559.262 286.523h-98.462v98.462h98.462v-98.462zM559.262 463.754h-98.462v98.462h98.462v-98.462zM748.308 109.292h-98.462v98.462h98.462v-98.462zM748.308 286.523h-98.462v98.462h98.462v-98.462zM748.308 463.754h-98.462v98.462h98.462v-98.462z" />
<glyph unicode="&#xe975;" glyph-name="calendar" d="M551.385 211.692v-78.769h78.769v78.769h-78.769zM393.846 211.692v-78.769h78.769v78.769h-78.769zM236.308 211.692v-78.769h78.769v78.769h-78.769zM708.923 526.769v-78.769h78.769v78.769h-78.769zM551.385 526.769v-78.769h78.769v78.769h-78.769zM393.846 526.769v-78.769h78.769v78.769h-78.769zM708.923 369.231v-78.769h78.769v78.769h-78.769zM551.385 369.231v-78.769h78.769v78.769h-78.769zM393.846 369.231v-78.769h78.769v78.769h-78.769zM236.308 369.231v-78.769h78.769v78.769h-78.769zM196.923 684.308v-78.769h555.323l78.769 78.769h-634.092zM827.077 802.462h82.708c21.662 0 35.446-12.997 35.446-34.265v-709.711c0-21.662-13.391-44.111-35.446-44.111h-787.692c-21.662 0-43.323 22.843-43.323 44.111v709.711c0 21.662 21.268 34.265 43.323 34.265h74.831v78.769h78.769v-78.769h472.615v78.769h78.769v-78.769z" />
<glyph unicode="&#xe976;" glyph-name="configuration" d="M512.788 250.289c-54.351 0-98.462-44.111-98.462-98.462s44.111-98.462 98.462-98.462 98.462 44.111 98.462 98.462-44.111 98.462-98.462 98.462zM512.788 545.674c-54.351 0-98.462-44.111-98.462-98.462s44.111-98.462 98.462-98.462 98.462 44.111 98.462 98.462-44.111 98.462-98.462 98.462zM512.788 644.135c54.351 0 98.462 44.111 98.462 98.462s-44.111 98.462-98.462 98.462-98.462-44.111-98.462-98.462 44.111-98.462 98.462-98.462z" />
<glyph unicode="&#xe977;" glyph-name="consult" d="M860.16 156.948c30.72 42.535 49.231 94.917 49.231 151.237 0 142.178-115.397 257.969-257.969 257.969-142.178 0-257.969-115.397-257.969-257.969s115.397-257.969 257.969-257.969c56.714 0 108.702 18.117 151.237 49.231l163.84-163.84 57.108 57.108-163.446 164.234zM766.031 308.185c0 63.409-51.2 114.609-114.609 114.609v57.108c94.917 0 171.717-76.8 171.717-171.717h-57.108zM395.028 93.538h-174.474c-12.997 0-23.631 10.634-23.631 23.631v701.046c0 12.997 10.634 23.631 23.631 23.631h543.508c12.997 0 23.631-10.634 23.631-23.631v-203.225c28.751-12.997 55.138-29.932 78.769-50.018v332.012c0 12.997-10.634 23.631-23.631 23.631h-701.046c-12.997 0-23.631-10.634-23.631-23.631v-858.585c0-12.997 10.634-23.631 23.631-23.631h350.917c-37.415 20.086-70.498 46.868-97.674 78.769z" />
<glyph unicode="&#xe978;" glyph-name="copy" d="M787.692 212.48v630.548c0 21.662-17.329 38.991-38.991 38.991h-630.942c-21.662 0-38.991-17.329-38.991-38.991v-630.548c0-21.662 17.329-38.991 38.991-38.991h630.548c22.055-0.394 39.385 17.329 39.385 38.991zM866.462 645.711v-551.385h-551.385l-78.769-78.769h669.932c21.662 0 38.991 17.329 38.991 38.991v669.932l-78.769-78.769z" />
<glyph unicode="&#xe979;" glyph-name="desktop" d="M946.018 881.231h-866.462c-21.662 0-39.385-17.723-39.385-39.385v-630.154c0-21.662 17.723-39.385 39.385-39.385h866.462c21.662 0 39.385 17.723 39.385 39.385v630.154c0 21.662-17.329 39.385-39.385 39.385zM906.634 251.077h-787.692v551.385h787.692v-551.385zM788.48 723.692h-590.769v-393.846h196.923zM0.788 93.538h1024v-78.769h-1024v78.769z" />
<glyph unicode="&#xe97a;" glyph-name="document" d="M630.942 920.615h-447.409c-13.785 0-25.994-11.028-25.994-24.812v-896c0-13.785 12.209-24.812 25.994-24.812h658.511c13.785 0 24.025 11.028 24.025 24.812v684.505l-235.126 236.308zM727.040 593.723h-175.655v326.892h78.769v-248.123h175.655l-78.769-78.769z" />
<glyph unicode="&#xe97b;" glyph-name="download" d="M512 920.615c-261.12 0-472.615-211.495-472.615-472.615s211.495-472.615 472.615-472.615 472.615 211.495 472.615 472.615c0 261.12-211.495 472.615-472.615 472.615zM510.818 132.923l-243.003 243.003 56.32 56.32 147.298-147.692-1.575 478.523 77.588-78.769v-400.935l151.237 150.449 56.714-56.32-244.578-244.578z" />
<glyph unicode="&#xe97c;" glyph-name="edit" d="M929.871 728.418l-140.603 141.391c-15.36 15.36-40.172 15.36-55.532 0l-125.637-126.031 137.058-137.846h-117.76l-78.375 78.769-470.252-473.009v-196.923h196.135l654.966 657.723c15.36 15.754 15.36 40.566 0 55.926zM472.615 93.538l-78.769-78.769h551.385v78.769h-472.615z" />
<glyph unicode="&#xe97d;" glyph-name="excel" d="M632.517 920.615h-447.409c-13.785 0-27.569-11.028-27.569-24.812v-896c0-13.785 13.785-24.812 27.569-24.812h658.511c13.785 0 22.449 11.028 22.449 24.812v684.505l-233.551 236.308zM364.702 333.785l-37.022 64.197-35.052-64.197h-59.865l64.985 109.883-60.258 98.855h64.591l31.508-55.138 28.751 55.138h58.289l-58.289-99.643 65.772-109.095h-63.409zM602.585 333.785h-145.723v208.738h55.138v-161.477h90.585v-47.262zM707.742 329.846c-48.049 0-76.406 21.662-94.523 50.018l42.142 25.994c12.603-20.086 33.083-31.902 55.138-31.902 17.329 0 30.326 5.12 30.326 18.117 0 13.391-16.542 18.511-37.415 23.631-34.265 8.665-79.951 17.723-79.951 65.378 0 42.929 32.295 66.166 79.951 66.166 44.505 0 71.286-20.874 87.828-40.96l-37.809-31.114c-11.815 14.178-31.902 26.388-50.018 26.388-16.148 0-24.418-5.514-24.418-15.36 0-13.785 16.542-18.905 37.022-24.025 34.265-8.271 80.345-18.905 80.345-65.772-0.394-33.477-23.631-66.56-88.615-66.56z" />
<glyph unicode="&#xe97e;" glyph-name="filter" d="M945.231 841.846c0 22.055-17.329 39.385-38.991 39.385h-709.711c-21.268 0-38.991-17.723-38.991-39.385v-78.769l315.077-315.077v-472.615l157.538 157.538v315.077l315.077 315.077v78.769zM708.923 684.308h-118.154v78.769h196.923l-78.769-78.769z" />
<glyph unicode="&#xe97f;" glyph-name="graphics" d="M904.665 880.443h-787.692c-22.055 0-39.385-17.723-39.385-39.385v-787.692c0-22.055 17.723-39.385 39.385-39.385h787.692c22.055 0 39.385 17.723 39.385 39.385v787.692c0.394 22.055-17.329 39.385-39.385 39.385zM353.674 132.135h-157.538v157.538l157.538 157.538v-315.077zM589.982 132.135h-157.538v472.615l157.538 157.538v-630.154zM826.289 132.135h-157.538v315.077l157.538 157.538v-472.615z" />
<glyph unicode="&#xe980;" glyph-name="historic" d="M472.615 421.218v196.923l78.769 78.769v-275.692zM458.831 330.634l-111.458-0.394 148.48 148.48 55.532-55.532zM512 917.465c-157.538 0-296.566-76.8-382.818-195.348l-89.797 77.194v-315.077l275.692 78.769-95.705 81.92c63.803 93.342 171.323 154.388 292.628 154.388 195.742 0 354.462-158.72 354.462-354.462s-158.72-354.462-354.462-354.462c-156.751 0-289.477 101.612-336.345 242.215l-112.246-37.415c62.622-187.865 239.852-322.954 448.591-322.954 261.12 0 472.615 211.495 472.615 472.615s-211.495 472.615-472.615 472.615z" />
<glyph unicode="&#xe981;" glyph-name="idcard" d="M946.018 802.462h-866.462c-21.662 0-40.172-17.329-40.172-38.991v-630.548c0-21.662 18.511-38.991 40.172-38.991h866.462c21.662 0 38.597 17.329 38.597 38.991v630.548c0 21.662-16.542 38.991-38.597 38.991zM372.185 684.308c59.471 0 107.52-48.049 107.52-107.52s-48.049-107.52-107.52-107.52-107.52 48.049-107.52 107.52c0.394 59.471 48.443 107.52 107.52 107.52zM586.831 211.692h-429.292v42.929c0 90.978 62.622 167.385 147.298 187.865 20.48-10.24 43.323-16.148 67.348-16.148 24.418 0 46.868 5.908 67.348 16.148 84.677-20.48 147.298-96.886 147.298-187.865v-42.929zM788.48 408.615h-158.326v78.769h237.095l-78.769-78.769zM788.48 566.154h-158.326v78.769h237.095l-78.769-78.769z" />
<glyph unicode="&#xe982;" glyph-name="interactivity" d="M512.788 920.615c-261.12 0-472.615-211.495-472.615-472.615s211.495-472.615 472.615-472.615 472.615 211.495 472.615 472.615-211.495 472.615-472.615 472.615zM512.788 54.154c-217.403 0-393.846 176.443-393.846 393.846s176.443 393.846 393.846 393.846 393.846-176.443 393.846-393.846-176.049-393.846-393.846-393.846zM512.788 723.692c-152.418 0-275.692-123.274-275.692-275.692s123.274-275.692 275.692-275.692 275.692 123.274 275.692 275.692c0 152.418-123.274 275.692-275.692 275.692zM512.788 251.077c-108.702 0-196.923 88.222-196.923 196.923s88.222 196.923 196.923 196.923 196.923-88.222 196.923-196.923-88.222-196.923-196.923-196.923z" />
<glyph unicode="&#xe983;" glyph-name="insuranceILT" d="M732.658 480.371h140.918c19.418 0 35.669-13.457 39.999-31.541 0.792 10.418 1.166 21 1.084 31.541 0 102.126-35.002 196.044-93.665 270.46l-130.339-130.334c26.503-40.165 42.003-88.333 42.003-140.126zM222.865 477.999c0 51.793 15.418 99.917 41.916 140.167l-130.312 130.291c-58.668-74.416-93.709-168.291-93.709-270.373 0-102.087 35.084-196.085 93.709-270.501l130.312 130.332c-26.496 40.168-41.916 88.333-41.916 140.085zM207.324 134.787c74.375-58.622 168.293-93.75 270.376-93.75v182.042c-51.711 0-99.874 15.415-140.083 41.96l-130.293-130.252zM967.001 334.665h-90.995v54.581c0 10.252-8.253 18.171-18.252 18.171h-182.129c-9.79 0-18.291-8.003-18.291-18.171v-54.581h-90.999c-9.958 0-18.084-8-18.084-18.043v-291.585c0-9.956 8.082-18.084 18.084-18.084h400.628c9.956 0 18.166 8.128 18.166 18.084v291.583c0.041 9.961-8.126 18.045-18.127 18.045zM693.834 371.078h145.667v-36.413h-145.667v36.413zM857.672 139.828h-60.084v-60.041h-61.874v60.041h-60.087v61.915h60.087v60.087h61.874v-60.087h60.084v-61.915zM748.162 823.645c-74.421 58.668-168.334 93.689-270.378 93.689-102.082 0-196.003-34.978-270.46-93.689l130.375-130.315c40.165 26.626 88.336 42 140.085 42 51.831 0 99.872-15.418 140.128-42l130.25 130.315z" />
<glyph unicode="&#xe984;" glyph-name="insurancebesafe" d="M763.836 40.983h67.139l44.771 44.771h-111.91v-44.771zM539.983 18.614c0 94.709 65.273 174.183 153.514 195.718 21.135-10.668 45.037-16.668 70.306-16.668 25.302 0 49.171 6.001 70.273 16.635 88.175-21.569 153.547-101.143 153.547-195.684v-44.771h-447.641v44.771zM763.836 466.255c-61.806 0-111.91-50.105-111.91-111.91s50.105-111.91 111.91-111.91c61.806 0 111.91 50.105 111.91 111.91s-50.105 111.91-111.91 111.91v0zM190.384 503.058c0 54.105 16.135 104.476 43.871 146.513l-136.279 136.279c-61.339-77.774-97.976-176.016-97.976-282.792s36.603-205.019 97.976-282.792l136.279 136.279c-27.769 42.037-43.871 92.408-43.871 146.513v0zM615.256 255.369c-5.1 7.601-9.501 15.701-13.368 24.102-41.737-27.136-91.508-42.971-144.947-42.971-54.105 0-104.476 16.135-146.547 43.871l-136.212-136.279c77.774-61.339 175.983-97.976 282.759-97.976 6.167 0 12.201 0.533 18.335 0.8 9.368 89.408 62.139 167.149 139.979 208.452v0zM456.942 769.616c54.105 0 104.476-16.135 146.513-43.837l136.246 136.212c-77.774 61.372-175.983 98.009-282.759 98.009s-204.985-36.603-282.759-98.009l136.212-136.212c42.070 27.736 92.442 43.837 146.547 43.837v0zM679.662 649.572l136.246 136.279c61.372-77.774 97.976-176.016 97.976-282.792 0-16.235-1.133-32.17-2.767-48.004-32.236 46.971-86.175 77.874-147.28 77.874-14.568 0-28.536-2.234-42.137-5.567-4.067 44.804-18.535 86.608-42.037 122.211v0z" />
<glyph unicode="&#xe985;" glyph-name="listview" d="M159.508 642.56v120.517h-120.123v-120.517h120.123zM159.508 388.529v120.517h-120.123v-120.517h120.123zM159.508 132.923v120.517h-120.123v-120.517h120.123zM827.077 644.923h-549.809v118.154h667.963zM708.923 388.923h-431.655v118.154h549.809zM827.077 132.923h-549.809v118.154h667.963z" />
<glyph unicode="&#xe986;" glyph-name="mobile26" d="M473.403 54.154c0-22.055 17.723-39.385 39.385-39.385 22.055 0 39.385 17.723 39.385 39.385 0 22.055-17.723 39.385-39.385 39.385-22.055 0-39.385-17.723-39.385-39.385zM276.48 841.846v-708.923h472.615v708.923h-472.615zM197.711 881.231c0 21.662 17.329 39.385 39.385 39.385h551.385c21.662 0 39.385-17.723 39.385-39.385v-866.462c0-21.662-17.329-39.385-39.385-39.385h-551.385c-21.662 0-39.385 17.723-39.385 39.385v866.462zM670.326 605.538l-315.077-315.077v472.615h315.077z" />
<glyph unicode="&#xe987;" glyph-name="mobile28" d="M473.403 54.154c0-22.055 17.723-39.385 39.385-39.385 22.055 0 39.385 17.723 39.385 39.385 0 22.055-17.723 39.385-39.385 39.385-22.055 0-39.385-17.723-39.385-39.385zM237.095 802.462v-669.538h551.385v669.538h-551.385zM158.326 881.231c0 21.662 17.329 39.385 39.385 39.385h630.154c21.662 0 39.385-17.723 39.385-39.385v-866.462c0-21.662-17.329-39.385-39.385-39.385h-630.154c-21.662 0-39.385 17.723-39.385 39.385v866.462zM709.711 644.923l-393.846-393.846v472.615h393.846z" />
<glyph unicode="&#xe988;" glyph-name="pdf" d="M630.154 920.615h-447.409c-13.785 0-25.206-11.028-25.206-24.812v-896c0-13.785 11.422-24.812 25.206-24.812h658.511c13.785 0 25.206 11.028 25.206 24.812v684.505l-236.308 236.308zM314.683 396.8h-23.237v-66.954h-55.138v208.738h78.375c44.898 0 90.585-8.665 90.585-70.892 0.394-62.228-49.231-70.892-90.585-70.892zM499.397 329.846h-70.105v208.738h70.105c62.228 0 115.397-23.237 115.397-102.794 0-82.708-53.957-105.945-115.397-105.945zM787.692 491.323h-86.646v-39.385h59.077v-47.262h-59.077v-74.831h-59.077v208.738h145.723v-47.262zM317.046 495.262h-25.6v-55.138h25.6c26.388 0 33.477 11.815 33.477 27.569s-7.483 27.569-33.477 27.569zM502.154 491.323h-13.785v-114.215h14.178c42.929 0 55.532 16.148 55.532 58.683 0 38.991-12.997 55.532-55.926 55.532z" />
<glyph unicode="&#xe989;" glyph-name="print" d="M867.249 684.308v196.923c0 21.662-17.329 39.385-38.991 39.385h-630.548c-21.662 0-38.991-17.723-38.991-39.385v-196.923h-118.154v-433.231c0-21.662 17.723-39.385 39.385-39.385h78.769v-196.923c0-21.662 17.329-39.385 38.991-39.385h630.548c21.662 0 38.991 17.723 38.991 39.385v196.923h78.769c21.662 0 39.385 17.723 39.385 39.385v433.231h-118.154zM237.095 841.846h551.385v-157.538h-551.385v157.538zM788.48 54.154h-551.385v236.308h551.385v-236.308zM827.865 487.385h-118.154v78.769h196.923l-78.769-78.769zM630.942 211.692h-315.077v-78.769h236.308l78.769 78.769z" />
<glyph unicode="&#xe98a;" glyph-name="safeforlater" d="M661.268 881.231h-553.748c-12.997 0-28.751-4.726-28.751-17.723v-819.2c0-12.997 15.754-29.538 28.751-29.538h819.2c12.997 0 18.511 16.542 18.511 29.538v554.142l-283.963 282.782zM510.818 132.923l-243.003 243.003 56.32 56.32 147.298-147.692-1.575 478.523 77.588-78.769v-400.935l151.237 150.449 56.714-56.32-244.578-244.578z" />
<glyph unicode="&#xe98b;" glyph-name="settings" d="M512 251.865c-108.702 0-196.923 88.222-196.923 196.923s88.222 196.923 196.923 196.923c108.702 0 196.923-88.222 196.923-196.923s-88.222-196.923-196.923-196.923zM973.194 346.388c7.483 33.083 11.422 67.348 11.422 102.794 0 33.083-3.545 65.772-9.846 96.886l-111.065 14.572c-5.514 17.723-12.603 35.052-20.874 51.594l69.317 88.615c-37.022 58.289-86.252 107.914-144.148 145.329l-89.009-68.529c-16.148 8.271-32.689 15.36-49.625 20.874l-13.391 111.458c-33.477 7.483-68.135 11.422-103.582 11.422s-70.105-3.938-103.582-11.422l-11.028-110.277c-19.298-6.302-37.809-14.178-55.532-23.237l-90.978 66.954c-54.745-36.628-101.612-84.283-137.058-139.422l69.317-88.222c-9.058-17.723-16.935-36.628-22.843-55.926l-111.065-14.572c-6.302-31.114-9.846-63.409-9.846-96.492 0-36.234 3.938-71.286 11.815-105.157l111.458-12.603c5.908-16.935 12.603-33.477 20.874-49.625l-68.529-89.403c37.022-57.108 86.252-105.945 143.754-142.178l90.191 68.529c14.966-7.483 30.72-13.785 46.868-19.298l12.603-111.065c33.083-7.483 67.742-11.422 103.188-11.422 34.265 0 67.742 3.545 100.037 10.634l17.329 112.246c16.542 5.514 32.689 12.209 48.049 20.086l85.858-70.892c57.502 36.234 106.338 84.283 143.754 140.997l-69.711 86.252c9.058 17.329 16.935 35.446 23.237 53.957l112.64 16.542z" />
<glyph unicode="&#xe98c;" glyph-name="team" d="M576.197 601.994c0-88.964-72.119-161.083-161.083-161.083s-161.083 72.119-161.083 161.083c0 88.964 72.119 161.083 161.083 161.083s161.083-72.119 161.083-161.083zM519.089 408.615c-31.508-15.36-67.348-24.418-104.763-24.418-37.809 0-74.043 8.665-105.551 24.418-131.938-31.508-230.006-147.298-230.006-285.145v-69.317h669.538v69.317c0 137.846-98.068 253.637-229.218 285.145zM635.274 601.994c0-15.36-1.575-30.72-4.726-45.292 6.302-0.788 12.603-1.182 18.905-1.182 79.163 0 143.36 64.197 143.36 143.36s-64.197 142.966-143.36 142.966c-46.080 0-87.434-22.055-113.428-55.926 59.865-39.385 99.249-107.126 99.249-183.926zM945.231 273.132c0 122.88-87.040 225.674-203.618 253.637-27.963-13.785-59.471-21.662-92.948-21.662-11.422 0-23.237 1.182-34.265 2.757-9.846-20.48-22.449-38.991-37.415-55.532 109.489-40.96 190.622-131.545 219.372-241.034h148.874v61.834z" />
<glyph unicode="&#xe98d;" glyph-name="titleview" d="M312.714 644.923v157.538h-157.538v-157.538h157.538zM590.769 644.923v157.538h-157.538v-157.538h157.538zM866.462 644.923v157.538h-157.538v-157.538h157.538zM590.769 369.231v157.538h-157.538v-157.538h157.538zM866.462 369.231v157.538h-157.538v-157.538h157.538zM312.714 93.538v157.538h-157.538v-157.538h157.538zM590.769 93.538v157.538h-157.538v-157.538h157.538zM312.714 369.231v157.538h-157.538v-157.538h157.538zM866.462 93.538v157.538h-157.538v-157.538h157.538z" />
<glyph unicode="&#xe98e;" glyph-name="trash" d="M749.095 93.538v354.462h-78.769v-275.692l78.769-78.769zM552.172 93.538v354.462h-78.769v-275.692l78.769-78.769zM355.249 93.538v354.462h-78.769v-275.692l78.769-78.769zM256.788 841.846h98.462v38.991c0 22.055 17.723 39.778 39.385 39.778h236.702c21.662 0 39.385-17.329 39.385-39.778v-38.991h275.692v-118.154h-78.769v-708.923c0-21.662-17.329-39.385-38.991-39.385h-630.942c-21.662 0-38.991 17.329-38.991 39.385v708.923h-78.769v118.154h176.837z" />
<glyph unicode="&#xe98f;" glyph-name="upload" d="M39.385 448c0-261.12 211.495-472.615 472.615-472.615s472.615 211.495 472.615 472.615-211.495 472.615-472.615 472.615-472.615-211.495-472.615-472.615zM756.185 520.074l-56.32-56.32-147.298 147.692 1.182-478.917-77.194 79.163v400.935l-151.237-150.449-56.714 56.32 244.578 244.578 243.003-243.003z" />
</font>
</defs>
</svg>
